<?xml version="1.0" standalone="no"?>
<!DOCTYPE svg PUBLIC "-//W3C//DTD SVG 1.1//EN" "http://www.w3.org/Graphics/SVG/1.1/DTD/svg11.dtd" >
<svg xmlns="http://www.w3.org/2000/svg">
<metadata>Generated by IcoMoon</metadata>
<defs>
<font id="Barebones" horiz-adv-x="1024">
<font-face units-per-em="1024" ascent="960" descent="-64" />
<missing-glyph horiz-adv-x="1024" />
<glyph unicode="&#x20;" horiz-adv-x="512" d="" />
<glyph unicode="&#xe111;" glyph-name="BlogLink" d="M895.982 727.453v127.994h-895.958v-703.967c0 0 0-127.994 127.994-127.994h799.962c0 0 95.995 1.984 95.995 127.994v575.973h-127.994zM128.018 87.483c-63.998 0-63.998 63.998-63.998 63.998v639.97h767.963v-639.97c0-29.47 9.088-49.886 21.631-63.998h-725.598zM128.018 663.456h639.97v-63.998h-639.97v63.998zM480.001 279.475h223.989v-63.998h-223.989v63.998zM480.001 407.468h287.986v-63.998h-287.986v63.998zM480.001 535.462h287.986v-63.998h-287.986v63.998zM128.018 535.462h287.986v-319.985h-287.986v319.985z" />
<glyph unicode="&#xe112;" glyph-name="Jump" d="M352.006 439.467h-319.988v127.995h319.988v127.995l191.993-191.993-191.993-191.993v127.995zM991.984 951.449v-831.969l-383.986-191.993v191.993h-383.986v255.991h63.998v-191.993h319.988v575.98l255.991 127.995h-575.98v-255.991h-63.998v319.988h767.973z" />
<glyph unicode="&#xe113;" glyph-name="QLBalloonBlue" d="M980.727 891.314h-937.416c-23.878 0-43.296-19.38-43.296-43.296v-658.14c0-23.878 19.38-43.296 43.296-43.296h519.714l199.335-148.923c26.916-20.112 48.91-9.075 48.91 24.532v124.43h169.418c23.878 0 43.296 19.38 43.296 43.296v658.14c0 23.878-19.38 43.257-43.257 43.257zM275.869 457.155c-36.99 0-66.943 29.992-66.943 66.943 0 36.99 29.992 66.943 66.943 66.943s66.943-29.992 66.943-66.943c-0.038-36.953-29.992-66.943-66.943-66.943zM512.038 457.155c-36.99 0-66.943 29.992-66.943 66.943 0 36.99 29.992 66.943 66.943 66.943s66.943-29.992 66.943-66.943-29.954-66.943-66.943-66.943zM748.209 457.155c-36.99 0-66.943 29.992-66.943 66.943 0 36.99 29.992 66.943 66.943 66.943s66.943-29.992 66.943-66.943-29.954-66.943-66.943-66.943z" />
<glyph unicode="&#xe114;" glyph-name="QLBalloonRed" d="M980.727 891.314h-937.416c-23.878 0-43.296-19.38-43.296-43.296v-658.14c0-23.878 19.38-43.296 43.296-43.296h519.714l199.335-148.923c26.916-20.112 48.91-9.075 48.91 24.532v124.43h169.418c23.878 0 43.296 19.38 43.296 43.296v658.14c0 23.878-19.38 43.257-43.257 43.257zM275.869 457.155c-36.99 0-66.943 29.992-66.943 66.943 0 36.99 29.992 66.943 66.943 66.943s66.943-29.992 66.943-66.943c-0.038-36.953-29.992-66.943-66.943-66.943zM512.038 457.155c-36.99 0-66.943 29.992-66.943 66.943 0 36.99 29.992 66.943 66.943 66.943s66.943-29.992 66.943-66.943-29.954-66.943-66.943-66.943zM748.209 457.155c-36.99 0-66.943 29.992-66.943 66.943 0 36.99 29.992 66.943 66.943 66.943s66.943-29.992 66.943-66.943-29.954-66.943-66.943-66.943z" />
<glyph unicode="&#xe115;" glyph-name="ToolsLock" d="M848.191 540.838h-50.539v124.957c0 157.506-128.141 285.648-285.646 285.648-157.509 0-285.654-128.141-285.654-285.648v-124.957h-50.539c-16.324 0-29.552-13.23-29.552-29.551v-554.245c0-16.324 13.23-29.552 29.552-29.552h672.382c16.318 0 29.547 13.23 29.547 29.552v554.245c-0.002 16.321-13.231 29.549-29.549 29.549zM558.075 203.517v-117.992c0-10.307-8.355-18.663-18.663-18.663h-54.829c-10.307 0-18.663 8.355-18.663 18.663v117.992c-20.389 14.454-33.703 38.22-33.703 65.11 0 44.053 35.717 79.776 79.779 79.776 44.056 0 79.774-35.724 79.774-79.776 0.002-26.891-13.31-50.657-33.697-65.11zM661.271 540.838h-298.54v124.957c0 82.309 66.965 149.268 149.273 149.268s149.264-66.959 149.264-149.268v-124.957z" />
<glyph unicode="&#xe116;" glyph-name="ToolsPin" d="M512.002 951.438c-186.758 0-338.696-151.939-338.696-338.694 0-75.219 48.032-197.851 146.834-374.906 69.888-125.227 138.626-229.644 141.514-234.027l50.348-76.316 50.346 76.313c2.89 4.385 71.632 108.8 141.512 234.027 98.806 177.057 146.834 299.687 146.834 374.906 0.002 186.758-151.937 338.696-338.691 338.696zM512.002 439.467c-96.961 0-175.565 78.603-175.565 175.565s78.605 175.565 175.565 175.565c96.961 0 175.565-78.603 175.565-175.565s-78.608-175.565-175.565-175.565z" />
<glyph unicode="&#xe117;" glyph-name="ToolsEdit" d="M895.979 597.178v-541.693c0-70.685-57.309-127.993-127.993-127.993h-639.967c-70.685 0-127.993 57.309-127.993 127.993v639.967c0 70.685 57.309 127.993 127.993 127.993h541.66l-127.931-127.993h-413.728v-639.967h639.967v413.666l127.993 128.027zM797.735 860.946l-45.248-45.248 135.744-135.775 45.248 45.248-135.744 135.775zM888.229 951.44l-45.248-45.248 135.744-135.775 45.248 45.279-135.744 135.744zM300.013 363.095l135.744-135.744 407.228 407.293-135.744 135.775-407.228-407.324zM256.013 183.48h127.993l-127.993 127.993v-127.993z" />
<glyph unicode="&#xe118;" glyph-name="ToolsDelete" d="M200.621-49.772c0-12.561 10.182-22.743 22.743-22.743h577.274c12.561 0 22.743 10.182 22.743 22.743v736.859h-622.759v-736.859zM639.925 561.688h85.284v-495.81h-85.284v495.81zM469.359 561.688h85.284v-495.81h-85.284v495.81zM298.792 561.688h85.284v-495.81h-85.284v495.81zM703.688 846.937v81.77c0 12.561-10.182 22.743-22.743 22.743h-337.89c-12.561 0-22.743-10.182-22.743-22.743v-110.198h-158.968c-12.561 0-22.743-10.182-22.743-22.743v-57.51c0-12.56 10.182-22.743 22.743-22.743h701.312c12.561 0 22.743 10.183 22.743 22.743v57.51c0 12.561-10.182 22.743-22.743 22.743h-158.968v28.429zM618.405 823.184h-212.809v42.981h212.809v-42.981z" />
<glyph unicode="&#xe119;" glyph-name="ToolsMove" d="M1023.96 439.513l-212.448 212.357v-139.243h-226.33v226.373h139.2l-212.403 212.448-212.489-212.448h139.375v-226.373h-226.373v139.243l-212.448-212.357 212.448-212.489v139.375h226.373v-226.55h-139.375l212.489-212.359 212.403 212.359h-139.2v226.55h226.33v-139.375z" />
<glyph unicode="&#xe11a;" glyph-name="ToolsTags" d="M1015.332 942.795c-6.090 6.084-14.523 9.219-23.105 8.569l-388.448-29.271c-7.041-0.53-13.671-3.567-18.663-8.562l-576.448-576.443c-11.538-11.538-11.538-30.238 0-41.769l359.179-359.182c11.538-11.531 30.238-11.534 41.776 0l576.439 576.444c4.998 4.994 8.040 11.614 8.565 18.666l29.268 388.449c0.644 8.574-2.48 17.010-8.565 23.1zM845.923 661.36c-30.935-30.929-81.097-30.929-112.028 0-30.929 30.932-30.925 81.088 0.008 112.020 30.925 30.932 81.085 30.932 112.020 0 30.929-30.929 30.929-81.085 0-112.020z" />
<glyph unicode="&#xe11b;" glyph-name="ToolsSort" d="M892.17 433.179h116.294c5.7 0 10.919 3.153 13.664 8.33 2.724 5.113 2.421 11.202-0.766 15.936l-216.254 321.284c-2.954 4.308-7.744 6.831-12.878 6.831-5.145 0-10.029-2.493-12.89-6.831l-216.19-321.138c-3.195-4.81-3.51-10.824-0.911-16.010 2.756-5.019 8.048-8.257 13.77-8.257h125.012c-0.356-50.577-2.526-92.248-6.707-127.17-19.897-167.090-120.14-211.78-124.405-213.614-5.794-2.327-9.43-8.13-9.43-14.302 0-0.89 0.030-2.001 0.283-3.008 1.436-7.21 7.787-12.48 15.171-12.48 253.242 0 307.17 300.704 316.234 370.425zM244.717 100.225l216.148 321.212c3.228 4.663 3.593 10.75 0.973 15.936-2.809 5.019-8.037 8.172-13.77 8.172h-125.033c0.389 50.64 2.547 92.31 6.749 127.161 19.887 167.166 120.119 211.864 124.384 213.624 5.815 2.421 9.43 8.193 9.43 14.291 0 0.986-0.042 2.074-0.292 3.081-1.436 7.23-7.774 12.48-15.192 12.48-253.187 0-307.191-300.674-316.307-370.478h-116.284c-5.628 0-10.909-3.081-13.664-8.257-2.692-5.113-2.4-11.202 0.787-15.936l216.222-321.284c2.975-4.295 7.744-6.842 12.899-6.842 5.209-0.010 10.111 2.504 12.95 6.842z" />
<glyph unicode="&#xe11c;" glyph-name="ToolsWatches" d="M512 729.932c-192.702 0-375.402-93.35-488.699-249.728l-23.287-32.138 23.287-32.138c113.296-156.367 295.997-249.716 488.699-249.716s375.402 93.35 488.699 249.728l23.287 32.138-23.287 32.138c-113.296 156.356-295.997 249.716-488.699 249.716zM662.485 523.056c0-30.462-24.691-55.164-55.164-55.164s-55.164 24.701-55.164 55.164c0 30.462 24.701 55.164 55.164 55.164s55.164-24.701 55.164-55.164zM512 275.749c-144.023 0-281.232 63.741-374.604 172.316 52.25 60.751 118.225 107.435 191.43 136.803-11.238-25.063-17.647-52.776-17.647-82.034 0-110.909 89.909-200.818 200.818-200.818s200.818 89.909 200.818 200.818c0 29.258-6.397 56.96-17.647 82.034 73.205-29.368 139.18-76.054 191.43-136.803-93.372-108.576-230.58-172.316-374.604-172.316z" />
<glyph unicode="&#xe11d;" glyph-name="ToolsProperties" d="M88.205-72.515h847.589c29.756 0 53.905 24.15 53.905 53.905v194.055c0 29.754-24.148 53.905-53.905 53.905h-847.589c-29.754 0-53.905-24.15-53.905-53.905v-194.055c0-29.753 24.15-53.905 53.905-53.905zM174.991 121.434c23.826 0 43.124-19.297 43.124-43.124s-19.297-43.124-43.124-43.124-43.124 19.296-43.124 43.124c0 23.825 19.297 43.124 43.124 43.124zM88.205 288.538h847.589c29.756 0 53.905 24.15 53.905 53.905v194.055c0 29.754-24.148 53.905-53.905 53.905h-847.589c-29.754 0-53.905-24.15-53.905-53.905v-194.055c0-29.755 24.15-53.905 53.905-53.905zM174.991 482.482c23.826 0 43.124-19.296 43.124-43.124s-19.297-43.124-43.124-43.124-43.124 19.297-43.124 43.124c0 23.828 19.297 43.124 43.124 43.124zM88.205 649.585h847.589c29.756 0 53.905 24.15 53.905 53.905v194.055c0 29.754-24.148 53.905-53.905 53.905h-847.589c-29.754 0-53.905-24.15-53.905-53.905v-194.055c0-29.754 24.15-53.905 53.905-53.905zM174.991 843.534c23.826 0 43.124-19.297 43.124-43.124s-19.297-43.124-43.124-43.124-43.124 19.297-43.124 43.124c0 23.826 19.297 43.124 43.124 43.124z" />
<glyph unicode="&#xe11e;" glyph-name="ToolsAttachments" d="M512.052 248.3l320.648-320.807 191.167 191.167-320.598 320.702 320.702 320.755-191.271 191.325-320.755-320.755-320.702 320.755-191.167-191.167 320.702-320.755-320.755-320.755 191.271-191.271z" />
<glyph unicode="&#xe11f;" glyph-name="ToolsUnapprove" d="M512.052 248.3l320.648-320.807 191.167 191.167-320.598 320.702 320.702 320.755-191.271 191.325-320.755-320.755-320.702 320.755-191.167-191.167 320.702-320.755-320.755-320.755 191.271-191.271z" />
<glyph unicode="&#xe120;" glyph-name="ToolsEmail" d="M512.006 350.983l-465.792 409.030h931.568zM326.455 439.599l-326.431-286.663v573.321zM368.768 402.44l143.24-125.777 143.212 125.777 322.859-283.52h-932.155zM697.531 439.586l326.445 286.675v-573.321z" />
<glyph unicode="&#xe121;" glyph-name="ToolsNotify" d="M273.077 849.050l-68.264 68.264c-117.023-87.766-195.039-224.294-204.79-380.327h97.519c9.752 131.651 73.14 243.799 175.535 312.063zM926.459 536.986h97.519c-9.752 156.030-82.891 292.558-199.914 380.327l-68.264-68.264c97.519-68.264 160.906-180.411 170.659-312.063zM828.938 512.607c0 151.154-102.395 273.055-243.799 307.187v34.131c0 39.008-34.131 73.14-73.14 73.14s-73.14-34.131-73.14-73.14v-34.131c-141.404-34.131-243.799-156.030-243.799-307.187v-268.178l-97.519-97.519v-48.76h828.915v48.76l-97.519 97.519v268.178zM512-48.13c4.876 0 14.629 0 19.504 0 34.131 4.876 58.511 29.255 68.264 58.511 4.876 9.754 9.752 24.38 9.752 39.008h-195.039c0-53.635 43.884-97.519 97.519-97.519z" />
<glyph unicode="&#xe122;" glyph-name="ToolsPrivate" d="M703.994 951.449c-176.724 0-319.989-143.264-319.989-319.989 0-20.028 1.859-39.615 5.375-58.623l-389.362-389.36v-191.993c0-35.344 28.652-63.997 63.997-63.997h63.997v63.997h127.996v127.996h127.996v127.994h127.996l83.042 83.042c34.008-12.316 70.691-19.043 108.951-19.043 176.724 0 319.989 143.262 319.989 319.989-0.002 176.724-143.267 319.987-319.989 319.987zM799.864 631.335c-53.019 0-95.996 42.977-95.996 95.996s42.977 95.996 95.996 95.996 95.996-42.977 95.996-95.996-42.979-95.996-95.996-95.996z" />
<glyph unicode="&#xe123;" glyph-name="ProfileFormList" d="M928.518 684.185h-220.098v17.226c0 52.643-42.832 95.475-95.46 95.475h-40.857v64.012c0 9.107-7.382 16.483-16.501 16.483h-87.207c-9.127 0-16.501-7.382-16.501-16.483v-64.012h-40.857c-52.625 0-95.455-42.829-95.455-95.475v-17.226h-220.101c-52.627 0-95.46-42.829-95.46-95.473v-491.685c0-52.643 42.832-95.478 95.46-95.478h833.039c52.625 0 95.46 42.832 95.46 95.478v491.685c-0.002 52.643-42.835 95.473-95.463 95.473zM955.284 97.027c0-14.772-12.008-26.782-26.764-26.782h-833.039c-14.755 0-26.764 12.011-26.764 26.782v491.685c0 14.772 12.006 26.781 26.764 26.781h254.448c18.985 0 34.344 15.379 34.344 34.347v51.571c0 14.774 12.006 26.781 26.764 26.781h40.857v-31.127c-18.985 0-34.344-15.377-34.344-34.344s15.361-34.349 34.344-34.349h120.214c18.985 0 34.344 15.382 34.344 34.349s-15.359 34.344-34.344 34.344v31.127h40.857c14.755 0 26.764-12.006 26.764-26.781v-51.571c0-18.968 15.361-34.347 34.349-34.347h254.443c14.755 0 26.764-12.008 26.764-26.781v-491.685zM859.759 516.745h-373.521c-18.98 0-34.344-15.375-34.344-34.344s15.364-34.347 34.344-34.347h373.518c18.98 0 34.344 15.379 34.344 34.347 0.002 18.97-15.364 34.344-34.343 34.344zM859.759 379.36h-373.521c-18.98 0-34.344-15.375-34.344-34.344 0-18.964 15.364-34.347 34.344-34.347h373.518c18.98 0 34.344 15.382 34.344 34.347 0.002 18.97-15.364 34.344-34.343 34.344zM859.759 241.976h-373.521c-18.98 0-34.344-15.377-34.344-34.347 0-18.964 15.364-34.347 34.344-34.347h373.518c18.98 0 34.344 15.382 34.344 34.347 0.002 18.97-15.364 34.347-34.343 34.347zM345.052 265.558c-29.214 10.211-48.77 37.783-48.77 68.725 28.54 19.354 48.099 56.169 48.099 98.967 0 62.723-41.527 113.55-92.711 113.55-51.222 0-92.711-50.827-92.711-113.55 0-42.799 19.56-79.613 48.099-98.967 0-30.939-19.555-58.513-48.77-68.725-34.279-11.996-57.258-44.359-57.258-80.686v-29.753c0-8.936 7.248-16.184 16.203-16.184h268.867c8.96 0 16.203 7.245 16.203 16.184v29.769c-0.002 36.326-22.975 68.675-57.255 80.669z" />
<glyph unicode="&#xe124;" glyph-name="TopicsPosted" d="M983.835 659.49h-229.349v-295.927c0-43.089-35.059-78.148-78.148-78.148h-353.156v-99.089c0-24.649 19.993-44.641 44.641-44.641h346.957l144.98-121.093c18.92-15.805 29.094-9.303 22.728 14.508l-28.324 105.869c-0.067 0.245-0.202 0.468-0.269 0.713h129.937c24.661 0 44.641 19.98 44.641 44.641v428.521c0 24.649-19.98 44.641-44.641 44.641zM665.168 330.093c24.661 0 44.641 19.98 44.641 44.641v428.521c0 9.472-2.994 18.215-8.019 25.443-8.064 11.583-21.433 19.199-36.622 19.199h-615.999c-24.661 0-44.641-19.98-44.641-44.641v-428.521c0-15.177 7.617-28.547 19.188-36.612 7.225-5.037 15.981-8.031 25.453-8.031h68.229c-0.067-0.245-0.202-0.468-0.256-0.713l-2.792-10.456-25.532-95.414c-4.020-15.013-1.462-23.142 5.719-23.142 1.095 0 2.324 0.213 3.618 0.593 3.708 1.095 8.208 3.718 13.381 8.041l144.98 121.093h408.652zM117.398 441.778h-1.184v294.43h481.909v-294.43h-480.724z" />
<glyph unicode="&#xe125;" glyph-name="TopicsStarted" d="M64.824 138.21h634.873c-0.107-0.358-0.285-0.679-0.378-1.037l-41.123-153.712c-5.835-21.803-2.121-33.599 8.309-33.599 6.105 0 14.526 4.060 24.683 12.538l210.498 175.813h57.507c35.791 0 64.81 29.019 64.81 64.81v622.155c0 35.791-29.019 64.81-64.81 64.81h-894.365c-35.791 0-64.81-29.019-64.81-64.81v-622.155c0-35.791 29.019-64.81 64.81-64.81zM119.086 770.916h785.837v-513.637h-46.435l-1.001-0.835 0.238 0.835h-738.639v513.637z" />
<glyph unicode="&#xe126;" glyph-name="PmProfileBuddyAdversary" d="M512.002 406.025c151.522 0.009 206.039 151.721 220.314 276.343 17.581 153.527-55.013 269.071-220.314 269.071-165.273 0-237.907-115.537-220.314-269.069 14.289-124.62 68.788-276.356 220.314-276.345zM921.881 44.767c-1.655 48.359-7.324 96.939-15.762 144.545-10.225 57.67-23.238 142.218-73.588 179.802-29.118 21.73-66.826 28.859-100.161 41.964-16.225 6.374-30.758 12.706-44.4 19.911-46.041-50.488-106.075-76.9-175.986-76.903-69.891 0-129.921 26.411-175.956 76.903-13.641-7.208-28.175-13.54-44.4-19.911-33.335-13.105-71.043-20.23-100.157-41.964-50.354-37.583-63.366-122.13-73.588-179.802-8.441-47.607-14.109-96.187-15.765-144.545-1.282-37.456 17.212-42.706 48.548-54.015 39.24-14.15 79.75-24.656 120.532-33.269 78.765-16.631 159.954-29.416 240.796-29.989 80.842 0.573 162.031 13.356 240.796 29.989 40.782 8.609 81.296 19.113 120.532 33.269 31.348 11.306 49.84 16.555 48.558 54.015z" />
<glyph unicode="&#xe127;" glyph-name="PmDeleteBuddyAdversary" d="M770.561 324.715c-110.058 0-199.283-89.226-199.283-199.284s89.223-199.283 199.283-199.283 199.287 89.226 199.287 199.284c-0.002 110.058-89.226 199.283-199.287 199.283zM857.75 91.238h-174.373c-18.884 0-34.189 15.309-34.189 34.193s15.308 34.193 34.189 34.193h174.375c18.884 0 34.189-15.309 34.189-34.193 0.002-18.884-15.308-34.193-34.192-34.193zM447.342 426.974c145.328 0.008 197.621 145.522 211.31 265.052 16.862 147.247-52.768 258.071-211.31 258.071-158.521 0-228.186-110.815-211.31-258.071 13.705-119.528 65.978-265.063 211.31-265.052zM765.122 366.402c4.677 0 9.323-0.141 13.937-0.397-6.917 9.867-14.921 18.569-24.29 25.559-27.926 20.842-64.092 27.68-96.065 40.248-15.563 6.113-29.501 12.188-42.584 19.1-44.159-48.426-101.742-73.758-168.795-73.763-67.037 0-124.611 25.333-168.764 73.763-13.084-6.917-27.025-12.987-42.584-19.1-31.973-12.566-68.138-19.403-96.065-40.248-48.297-36.048-60.776-117.139-70.584-172.451-8.094-45.661-13.529-92.258-15.118-138.639-1.229-35.926 16.509-40.963 46.565-51.808 37.632-13.572 76.488-23.648 115.606-31.909 75.547-15.953 153.419-28.212 230.956-28.763 37.569 0.268 75.217 3.3 112.638 8.153-27.709 40.149-43.963 88.781-43.963 141.145 0.003 137.362 111.752 249.107 249.107 249.107z" />
<glyph unicode="&#xe128;" glyph-name="PermissionYes" d="M1013.861 713.868l-114.129 114.131c-13.508 13.508-35.409 13.508-48.917 0l-475.425-475.428-202.208 202.204c-13.503 13.508-35.407 13.508-48.912 0l-114.129-114.131c-13.508-13.505-13.508-35.407 0-48.915l340.795-340.793c6.754-6.756 15.607-10.132 24.459-10.132 8.855 0 17.706 3.376 24.459 10.132l614.011 614.021c6.488 6.485 10.132 15.284 10.132 24.455 0.002 9.176-3.642 17.97-10.132 24.459z" />
<glyph unicode="&#xe129;" glyph-name="PermissionNo" d="M512.052 248.3l320.648-320.807 191.167 191.167-320.598 320.702 320.702 320.755-191.271 191.325-320.755-320.755-320.702 320.755-191.167-191.167 320.702-320.755-320.755-320.755 191.271-191.271z" />
<glyph unicode="&#xe12a;" glyph-name="Permalink" d="M954.22 867.978l-34.865 30.85c-37.952 33.632-86.802 52.157-137.565 52.157-59.407 0-116.018-25.426-155.324-69.763l-99.787-112.607c-12.851-14.474-19.29-33.094-18.119-52.414 1.171-19.292 9.771-36.997 24.245-49.828l9.342-8.294c13.259-11.775 30.343-18.256 48.081-18.256l4.325 0.124c19.292 1.16 37.009 9.762 49.885 24.255l99.81 112.619c17.559 19.82 50.873 21.81 70.726 4.266l34.853-30.917c9.994-8.846 15.935-21.092 16.744-34.486 0.812-13.382-3.626-26.238-12.497-36.221l-218.285-246.235c-14.696-16.601-40.787-21.393-60.482-11.244-30.683 15.826-70.683 8.273-93.441-17.378l-1.71-1.948c-15.94-17.93-22.579-41.757-18.258-65.47 4.366-23.57 19.043-43.785 40.315-54.918 29.439-15.39 62.649-23.849 96.027-23.849h0.026c59.379 0 116.016 25.76 155.342 70.11l218.259 246.37c75.861 85.597 67.985 217.144-17.645 293.080zM481.776 220.082c-28.772 25.476-76.673 22.612-102.243-6.185l-99.764-112.585c-17.559-19.812-50.852-21.863-70.683-4.3l-34.891 30.953c-9.992 8.856-15.935 21.101-16.744 34.484-0.814 13.361 3.626 26.212 12.493 36.197l218.262 246.219c14.474 16.344 40.093 21.282 59.562 11.716 31.827-15.676 72.323-8.037 96.93 19.82 15.645 17.627 22.217 41.037 18.073 64.122-4.117 23.219-18.412 42.916-39.19 54.023-29.892 16.005-63.724 24.468-97.806 24.468-59.407 0-116.018-25.436-155.324-69.78l-218.289-246.177c-75.907-85.597-68.006-216.977 17.599-292.883l34.865-30.483c37.933-33.635 86.783-51.743 137.545-51.743 0.023 0 0 0 0.023 0 59.407 0 116.042 25.026 155.368 69.371l99.747 112.358c12.874 14.498 19.313 33.027 18.14 52.243-1.122 19.088-9.968 37.244-24.287 49.9l-9.387 8.263z" />
<glyph unicode="&#xe12b;" glyph-name="Information" d="M512.022 951.438c-282.294 0-511.992-229.657-511.992-511.99 0-282.302 229.681-511.951 511.992-511.951 282.324 0 511.951 229.649 511.951 511.951 0 282.335-229.629 511.99-511.951 511.99zM475.952 710.442c10.117 10.018 23.179 14.989 39.111 14.989 17.069 0 31.278-5.29 42.598-15.869 11.278-10.583 16.937-22.536 16.937-35.865 0-9.842-2.232-19.696-6.703-29.524-4.51-9.886-11.607-17.756-21.345-23.701-9.711-5.937-19.624-8.898-29.763-8.898-13.901 0-26.707 5.925-38.447 17.808-11.76 11.884-17.612 26.070-17.612 42.598 0 15.639 5.085 28.445 15.222 38.459zM624.139 153.905c-7.792-0.288-13.573-0.43-17.347-0.43-4.344 0-10.968 0.288-19.93 0.884-29.507 1.433-68.996 2.174-118.445 2.174-14.177 0-27.905-0.532-41.202-1.52-13.328-1.024-22.421-1.515-27.33-1.515l-0.881 28.252 49.129 6.522c7.23 2.051 12.222 5.003 14.967 8.939 2.78 3.895 4.142 12.67 4.142 26.286v4.793c0 3.45 0.206 9.763 0.646 18.867 0.441 9.145 0.656 17.179 0.656 24.114 0 5.534-0.441 16.117-1.301 31.739l0.646 21.734-0.646 20.42 1.301 70.865c0 8.981-0.881 18.249-2.627 27.806-3.208 4.336-9.072 8.121-17.509 11.289-8.437 3.179-23.182 5.525-44.179 6.952v24.32c29.834 1.745 56.059 7.976 78.677 18.682 15.329 6.97 31.975 19.283 49.967 36.957h29.137c1.148-35.927 1.721-82.584 1.721-139.94l-3.035-177.323c0-12.139 0.577-23.169 1.724-33.013 8.981-3.2 23.619-6.395 43.899-9.554 7.81-1.191 14.045-2.627 18.678-4.348l-0.857-23.953z" />
<glyph unicode="&#xe12c;" glyph-name="PmSendPmButton" d="M512.006 350.983l-465.792 409.030h931.568zM326.455 439.599l-326.431-286.663v573.321zM368.768 402.44l143.24-125.777 143.212 125.777 322.859-283.52h-932.155zM697.531 439.586l326.445 286.675v-573.321z" />
<glyph unicode="&#xe12d;" glyph-name="PolicyDoc" d="M652.158 299.838c-63.417-49.413-115.118-110.445-167.421-170.878-22.381 23.712-42.735 48.885-55.851 79.23-14.845 34.602-71.259-15.736-57.881-46.889 18.294-42.303 50.876-76.701 82.951-109.109 13.083-13.313 35.561 1.727 44.593 12.020 57.377 65.148 110.904 133.718 179.771 187.38 33.043 25.703 13.215 78.929-26.162 48.248zM834.718 877.987h-158.432c-11.117 12.232-27.057 20.084-44.886 20.084h-61.029v10.342c-0.002 22.39-29.989 43.027-58.369 43.027-28.382 0-58.369-20.638-58.369-43.027v-10.342h-61.030c-17.829 0-33.767-7.851-44.886-20.084h-158.501c-16.806 0-30.283-13.599-30.283-30.334v-889.807c0-16.701 13.444-30.349 30.283-30.349h645.503c16.769 0 30.349 13.544 30.349 30.349v889.807c-0.004 16.735-13.586 30.334-30.349 30.334zM804.301-11.841h-584.767v829.162l115.689-0.007c8.24-23.941 30.65-41.275 57.409-41.275h238.738c26.758 0 49.169 17.333 57.409 41.275l115.522 0.007-0.002-829.162zM276.207 713.194h471.585v-47.163h-471.585v47.163zM276.207 609.447h471.585v-47.163h-471.585v47.163zM276.207 505.698h471.585v-47.163h-471.585v47.163zM276.207 401.949h471.585v-47.163h-471.585v47.163z" />
<glyph unicode="&#xe12e;" glyph-name="goNewPost" d="M983.835 659.49h-229.349v-295.927c0-43.089-35.059-78.148-78.148-78.148h-353.156v-99.089c0-24.649 19.993-44.641 44.641-44.641h346.957l144.98-121.093c18.92-15.805 29.094-9.303 22.728 14.508l-28.324 105.869c-0.067 0.245-0.202 0.468-0.269 0.713h129.937c24.661 0 44.641 19.98 44.641 44.641v428.521c0 24.649-19.98 44.641-44.641 44.641zM665.168 330.093c24.661 0 44.641 19.98 44.641 44.641v428.521c0 9.472-2.994 18.215-8.019 25.443-8.064 11.583-21.433 19.199-36.622 19.199h-615.999c-24.661 0-44.641-19.98-44.641-44.641v-428.521c0-15.177 7.617-28.547 19.188-36.612 7.225-5.037 15.981-8.031 25.453-8.031h68.229c-0.067-0.245-0.202-0.468-0.256-0.713l-2.792-10.456-25.532-95.414c-4.020-15.013-1.462-23.142 5.719-23.142 1.095 0 2.324 0.213 3.618 0.593 3.708 1.095 8.208 3.718 13.381 8.041l144.98 121.093h408.652zM117.398 441.778h-1.184v294.43h481.909v-294.43h-480.724z" />
<glyph unicode="&#xe12f;" glyph-name="PlupAttachmentStatus" d="M111.624 74.122c68.968-68.968 181.188-68.968 250.157 0l366.598 366.598c49.076 49.076 49.076 128.928 0 178.004l-26.677 26.677c-49.076 49.076-128.928 49.076-178.004 0l-253.453-253.453c-22.049-22.049-22.049-57.792 0-79.829 22.037-22.037 57.792-22.037 79.829 0l253.453 253.453c5.058 5.058 13.287 5.058 18.346 0l26.677-26.677c5.058-5.058 5.058-13.287 0-18.346l-366.598-366.598c-24.95-24.95-65.547-24.95-90.498 0l-60.129 60.129c-24.95 24.95-24.95 65.547 0 90.498l487.522 487.522c46.637 46.637 122.527 46.637 169.164 0l87.902-87.902c46.637-46.637 46.637-122.527 0-169.164l-416.25-416.25c-22.049-22.049-22.049-57.792 0-79.829 22.037-22.037 57.792-22.037 79.829 0l416.25 416.25c90.656 90.656 90.656 238.167 0 328.823l-87.902 87.902c-90.656 90.656-238.167 90.656-328.823 0l-487.511-487.522c-68.968-68.968-68.968-181.188 0-250.157l60.117-60.129z" />
<glyph unicode="&#xe130;" glyph-name="TopicStatusPin" d="M512.002 951.467c-186.768 0-338.714-151.947-338.714-338.712 0-75.223 48.035-197.862 146.842-374.927 69.892-125.235 138.634-229.658 141.522-234.041l50.35-76.32 50.348 76.318c2.89 4.385 71.637 108.806 141.52 234.041 98.811 177.067 146.842 299.704 146.842 374.927 0.002 186.768-151.945 338.714-338.71 338.714zM512.002 439.467c-96.966 0-175.575 78.607-175.575 175.575s78.609 175.575 175.575 175.575c96.966 0 175.575-78.607 175.575-175.575s-78.611-175.575-175.575-175.575z" />
<glyph unicode="&#xe131;" glyph-name="WatchesForumStatus" d="M512 729.932c-192.702 0-375.402-93.35-488.699-249.728l-23.287-32.138 23.287-32.138c113.296-156.367 295.997-249.716 488.699-249.716s375.402 93.35 488.699 249.728l23.287 32.138-23.287 32.138c-113.296 156.356-295.997 249.716-488.699 249.716zM662.485 523.056c0-30.462-24.691-55.164-55.164-55.164s-55.164 24.701-55.164 55.164c0 30.462 24.701 55.164 55.164 55.164s55.164-24.701 55.164-55.164zM512 275.749c-144.023 0-281.232 63.741-374.604 172.316 52.25 60.751 118.225 107.435 191.43 136.803-11.238-25.063-17.647-52.776-17.647-82.034 0-110.909 89.909-200.818 200.818-200.818s200.818 89.909 200.818 200.818c0 29.258-6.397 56.96-17.647 82.034 73.205-29.368 139.18-76.054 191.43-136.803-93.372-108.576-230.58-172.316-374.604-172.316z" />
<glyph unicode="&#xe132;" glyph-name="SubscriptionsForumStatus" d="M418.303 67.053c-97.663 61.019-313.811 201.584-356.375 276.17-55.457 97.042-74.53 153.382-53.708 249.411 9.867 45.759 29.353 81.802 47.092 107.022 17.91 25.482 55.135 60.548 82.76 74.906 27.888 14.49 68.705 28.639 123.051 29.881 116.831 0 182.717-44.124 217.049-80.149 21.479-22.532 42.921-22.363 64.269 0.3 34.485 36.607 101.44 81.239 221.841 78.495 54.309-1.203 95.127-15.316 123.032-29.822 27.624-14.376 64.853-49.442 82.591-75.038 17.232-24.861 36.12-60.341 45.889-105.592 20.746-96.028 1.71-152.367-53.653-249.411-42.677-74.606-258.806-215.15-356.469-276.17-26.402-16.48-64.814-51.679-93.566-51.415-28.733 0.225-67.407 34.935-93.81 51.415z" />
<glyph unicode="&#xe133;" glyph-name="TopicStatusPost" d="M64.824 138.21h634.873c-0.107-0.358-0.285-0.679-0.378-1.037l-41.123-153.712c-5.835-21.803-2.121-33.599 8.309-33.599 6.105 0 14.526 4.060 24.683 12.538l210.498 175.813h57.507c35.791 0 64.81 29.019 64.81 64.81v622.155c0 35.791-29.019 64.81-64.81 64.81h-894.365c-35.791 0-64.81-29.019-64.81-64.81v-622.155c0-35.791 29.019-64.81 64.81-64.81zM119.086 770.916h785.837v-513.637h-46.435l-1.001-0.835 0.238 0.835h-738.639v513.637z" />
<glyph unicode="&#xe134;" glyph-name="TopicStatusLock" d="M767.989 530.505v164.95c0 141.116-114.807 255.989-255.989 255.989-141.151 0-255.989-114.87-255.989-255.989v-164.95h127.996v164.95c-0.008 70.629 57.397 127.996 127.991 127.996 70.563 0 127.996-57.374 127.996-127.996v-164.95h127.991zM128.014 375.473v-319.989c0-70.689 57.31-127.996 127.996-127.996h511.982c70.68 0 127.991 57.31 127.991 127.996v319.989c0 70.689-57.31 127.996-127.996 127.996h-511.974c-70.689-0.008-127.996-57.31-127.996-127.996zM512 311.471c35.343 0 63.994-28.626 63.994-63.994 0-23.433-13.215-43.059-32.003-54.187v-105.808c0-17.69-14.31-32.003-32.003-32.003s-32.003 14.31-32.003 32.003v105.808c-18.783 11.125-32.003 30.751-32.003 54.187 0.010 35.374 28.666 63.994 64.009 63.994z" />
<glyph unicode="&#xe135;" glyph-name="GooglePlus" d="M531.422 598.745c0 70.97-42.31 181.34-123.882 181.34-25.645 0-53.121-12.801-68.895-32.527-16.74-20.73-21.601-47.254-21.601-72.962 0-65.994 38.319-175.368 122.94-175.368 24.566 0 51.036 11.765 66.853 27.549 22.615 22.743 24.586 54.21 24.586 71.967zM478.29 339.542c-7.835 0.986-12.759 0.986-22.585 0.986-8.871 0-61.992-1.937-103.276-15.83-21.621-7.835-84.548-31.509-84.548-101.475 0-69.986 67.86-120.309 173.073-120.309 94.426 0 144.591 45.442 144.591 106.461 0 50.409-32.452 76.931-107.257 130.169zM512 951.451c-282.762 0-511.984-229.223-511.984-511.984s229.223-511.984 511.984-511.984 511.984 229.223 511.984 511.984-229.223 511.984-511.984 511.984zM392.728 61.62c-142.632 0-211.435 67.965-211.435 140.947 0 35.458 17.671 85.688 75.706 120.207 60.947 37.45 143.608 42.35 187.887 45.4-13.818 17.725-29.498 36.445-29.498 66.98 0 16.73 4.924 26.596 9.784 38.434-10.83-1.007-21.601-1.97-31.448-1.97-104.209 0-163.216 77.915-163.216 154.773 0 45.274 20.627 95.577 62.905 132.043 56.087 46.322 132.724 58.891 185.875 58.891h193.774l-63.951-40.185h-60.934c22.607-18.71 69.755-58.13 69.755-133.069 0-72.877-41.25-107.468-82.535-139.951-12.811-12.79-27.582-26.587-27.582-48.302 0-21.631 14.77-33.449 25.561-42.393l35.438-27.531c43.286-36.454 82.619-69.966 82.608-138.033-0.010-92.666-89.554-186.243-258.689-186.243zM817.147 451.515v-99.149h-48.658v99.149h-98.395v49.203h98.395v98.53h48.658v-98.53h98.876v-49.203h-98.876z" />
<glyph unicode="&#xe136;" glyph-name="LinkedIn" d="M512 951.447c-282.759 0-511.98-229.221-511.98-511.98s229.221-511.98 511.98-511.98 511.98 229.221 511.98 511.98-229.221 511.98-511.98 511.98zM320.167 92.829h-143.931v463.091h143.931v-463.091zM248.232 619.222c-46.132 0-83.478 37.397-83.478 83.467 0.010 46.030 37.345 83.425 83.478 83.425 46.008 0 83.405-37.397 83.405-83.425 0-46.081-37.408-83.467-83.405-83.467zM859.247 92.829h-143.826v225.21c0 53.707-0.994 122.781-74.805 122.781-74.867 0-86.379-58.493-86.379-118.894v-229.086h-143.806v463.082h138.053v-63.282h1.928c19.222 36.412 66.162 74.793 136.178 74.793 145.743 0 172.653-95.91 172.653-220.599v-254.006z" />
<glyph unicode="&#xe137;" glyph-name="MySpace" d="M512 951.447c-282.759 0-511.98-229.221-511.98-511.98s229.221-511.98 511.98-511.98 511.98 229.221 511.98 511.98-229.221 511.98-511.98 511.98zM635.431 821.135c67.859 0 122.843-54.952 122.843-122.77 0-67.87-54.986-122.854-122.843-122.854-67.765 0-122.781 54.986-122.77 122.854 0 67.795 55.007 122.77 122.77 122.77zM402.828 784.817c50.040 0 90.653-40.56 90.653-90.61 0-50.019-40.611-90.579-90.653-90.579-50.019 0-90.59 40.56-90.59 90.579-0.010 50.050 40.56 90.61 90.59 90.61zM227.837 761.76c36.014 0 65.21-29.194 65.21-65.23 0-36.014-29.185-65.219-65.21-65.219s-65.23 29.194-65.23 65.219 29.206 65.23 65.23 65.23zM813.669 57.799h-349.163v163.676h-187.831v134.922h-139.668v173.88h0.136c1.718 49.737 42.456 89.51 92.58 89.51 41.986 0 77.381-27.906 88.798-66.172 22.951 21.034 53.425 33.983 86.976 33.983 52.951 0 98.373-31.918 118.17-77.55 30.787 27.193 71.106 43.838 115.407 43.838 94.425 0 171.092-74.992 174.298-168.579h0.313v-327.51z" />
<glyph unicode="&#xe138;" glyph-name="Twitter" d="M512 951.447c-282.759 0-511.98-229.221-511.98-511.98s229.221-511.98 511.98-511.98 511.98 229.221 511.98 511.98-229.221 511.98-511.98 511.98zM821.597 576.001c0.241-6.044 0.367-12.099 0.367-18.186 0-218.704-166.421-444.918-444.918-444.918-85.132 0-168.025 24.292-239.706 70.27-1.498 0.952-2.116 2.808-1.519 4.472 0.597 1.654 2.283 2.681 4.011 2.483 12.026-1.426 24.324-2.148 36.528-2.148 66.235 0 128.941 20.478 181.976 59.331-63.574 5.364-118.212 48.396-137.866 109.76-0.409 1.278-0.116 2.661 0.766 3.667 0.89 1.007 2.252 1.446 3.55 1.214 17.62-3.351 35.532-3.562 52.796-0.766-65.565 20.385-111.647 81.791-111.647 151.725l0.020 2.032c0.031 1.33 0.753 2.546 1.908 3.205 1.142 0.67 2.568 0.681 3.719 0.031 17.095-9.49 36.014-15.587 55.426-17.924-37.679 30.032-59.803 75.559-59.803 124.258 0 28.095 7.437 55.708 21.516 79.853 0.629 1.079 1.739 1.77 2.974 1.866 1.248 0.127 2.45-0.419 3.237-1.383 77.12-94.59 190.556-152.835 311.859-160.325-2.021 10.182-3.050 20.678-3.050 31.269 0 87.585 71.252 158.827 158.827 158.827 43.065 0 84.662-17.692 114.486-48.616 33.615 6.85 65.639 19.211 95.21 36.748 1.35 0.807 3.059 0.681 4.294-0.293 1.227-0.986 1.73-2.619 1.248-4.129-10.025-31.352-29.583-58.704-55.832-78.451 24.732 4.307 48.73 11.574 71.556 21.705 1.54 0.702 3.342 0.262 4.442-1.028 1.090-1.299 1.184-3.152 0.241-4.555-20.792-31.123-46.564-58.033-76.615-80z" />
<glyph unicode="&#xe139;" glyph-name="Facebook" d="M512 951.447c-282.759 0-511.98-229.221-511.98-511.98s229.221-511.98 511.98-511.98 511.98 229.221 511.98 511.98-229.221 511.98-511.98 511.98zM707.323 690.717l-70.812-0.031c-55.519 0-66.268-26.388-66.268-65.105v-85.373h132.419l-0.051-133.729h-132.354v-343.14h-138.116v343.15h-115.458v133.717h115.458v98.614c0 114.443 69.923 176.771 172.006 176.771l103.191-0.158v-124.719z" />
<glyph unicode="&#xe13a;" glyph-name="YouTube" d="M418.708 327.257c76.826 39.838 152.981 79.31 229.839 119.168-77.088 40.226-153.221 79.927-229.839 119.91 0-79.97 0-159.12 0-239.078zM512 951.447c-282.75 0-511.98-229.221-511.98-511.98s229.231-511.98 511.98-511.98 511.98 229.221 511.98 511.98-229.231 511.98-511.98 511.98zM860.838 268.574c-8.862-38.445-40.31-66.801-78.156-71.032-89.637-10.025-180.352-10.068-270.702-10.025-90.35-0.051-181.088 0-270.745 10.025-37.848 4.231-69.272 32.59-78.114 71.032-12.602 54.753-12.602 114.516-12.602 170.893s0.147 116.15 12.75 170.893c8.842 38.445 40.268 66.811 78.114 71.044 89.657 10.013 180.394 10.068 270.745 10.013 90.33 0.051 181.065 0 270.702-10.013 37.869-4.231 69.314-32.59 78.156-71.044 12.602-54.753 12.496-114.528 12.496-170.893s-0.042-116.14-12.644-170.893z" />
<glyph unicode="&#xe13b;" glyph-name="UserWebsite" d="M512 956.307c-282.313 0-511.98-229.667-511.98-511.98s229.667-511.98 511.98-511.98 511.98 229.667 511.98 511.98-229.667 511.98-511.98 511.98zM193.364 208.447c17.163-1.139 35.803-1.818 55.803-1.818 35.383 0 75.143 2.318 118.12 8.012 10.929 1.459 23.837-5.154 29.011-14.906 5.354-10.090 10.869-20.18 16.643-30.29 5.454-9.59 1.259-18.901-9.63-20.679-54.164-8.811-102.956-12.088-144.293-12.368-11.029-0.080-26.733 6.014-34.644 13.727-14.026 13.667-27.113 28.272-39.1 43.776-6.753 8.711-2.917 15.264 8.092 14.546zM405.968 829.876c5.094-5.474 0.839-13.327-9.511-17.143-5.694-2.118-11.429-4.156-17.183-6.193-10.41-3.657-18.641-0.32-18.162 7.352 0.46 7.672 8.591 16.923 18.122 20.22 9.511 3.277 21.619 1.239 26.733-4.236zM392.522 593.636c-10.589-3.077-20.639 3.477-22.158 14.406-3.297 23.737-5.674 46.173-7.332 67.032-0.879 11.009 0.699 20.56 3.337 21.299 1.579 0.42 3.157 0.879 4.716 1.379 30.909 10.010 60.838 21.359 90.209 33.467 10.21 4.196 23.697 0.44 29.97-8.631 11.848-17.143 24.156-35.983 36.562-56.442 5.714-9.451 2.058-20.939-8.032-25.394-21.219-9.371-43.496-18.521-67.032-27.273-20.52-7.612-40.598-14.126-60.239-19.84zM592.539 542.169c16.383-37.162 31.469-77.321 44.154-120.138 3.137-10.589-2.598-23.117-12.628-27.712-24.856-11.409-51.188-22.498-79.32-33.007-27.352-10.21-54.004-18.601-79.859-25.494-10.669-2.857-22.837 3.297-26.913 13.567-16.443 41.558-29.57 82.257-39.979 121.377-2.837 10.669 3.697 21.579 14.306 24.576 24.476 6.893 49.589 15.004 75.223 24.536 27.652 10.27 53.806 21.099 78.6 32.208 10.070 4.496 21.958 0.18 26.413-9.91zM589.701 792.134c16.363 8.911 32.468 18.102 48.171 27.672 9.431 5.734 25.354 7.512 35.503 3.177 21.659-9.251 42.377-20.26 61.957-32.927 9.251-5.994 9.491-16.843 0.699-23.497-25.174-19.081-55.423-39.959-90.988-61.258-9.471-5.674-21.679-2.358-27.352 7.113-11.529 19.201-23.017 37.182-34.266 53.824-6.193 9.131-3.417 20.619 6.273 25.894zM178.1 656.473c21.539 2.338 43.076 5.374 64.554 9.191 10.869 1.938 20.26-5.214 21.259-16.203 1.778-19.6 4.136-40.279 7.213-61.877 1.559-10.929-5.894-21.059-16.863-22.378-44.054-5.274-83.616-6.453-117.42-5.534-11.029 0.3-17.482 9.431-13.846 19.84 6.993 19.96 15.524 39.18 25.374 57.621 5.214 9.73 18.761 18.162 29.73 19.341zM273.961 467.205c10.949 1.399 21.898-5.934 24.676-16.603 10.070-38.54 22.598-78.56 38.081-119.458 3.897-10.33-1.639-19.68-12.628-20.699-80.259-7.472-144.673-1.639-184.692 4.616-10.909 1.698-22.478 11.928-25.354 22.578-9.171 34.046-14.146 69.769-14.146 106.671 0 2.897 0.16 5.734 0.36 8.571 0.32 4.716 9.451 7.912 20.46 7.432 11.529-0.52 23.677-0.819 36.582-0.819 34.704 0.020 74.004 2.238 116.661 7.712zM494.038 47.451c6.273-8.272 2.558-14.806-8.451-14.066-21.698 1.419-42.936 4.556-63.616 9.211-10.769 2.438-10.549 6.134 0.32 7.952 13.387 2.238 27.073 4.836 40.998 7.732 10.789 2.238 24.456-2.558 30.749-10.829zM593.857 93.784c2.438 0.759 4.876 1.539 7.352 2.398 18.881 6.613 37.122 13.427 54.744 20.4 10.25 4.076 18.162-1.459 17.382-12.488-0.46-6.793-1.039-13.647-1.679-20.5-1.019-10.989-10.25-23.357-20.679-27.013-2.917-1.019-5.834-1.998-8.771-2.957-10.489-3.397-25.094 0.899-32.268 9.291-3.677 4.296-7.313 8.631-10.889 12.947-7.033 8.551-9.271 16.663-5.194 17.922zM544.727 182.774c-10.529-3.297-23.937 1.718-29.67 11.149-5.554 9.131-10.929 18.262-16.103 27.412-5.434 9.59-1.039 19.8 9.57 22.857 23.197 6.693 46.932 14.486 71.168 23.537 23.037 8.611 44.854 17.602 65.813 26.793 10.11 4.436 19.68-0.659 21.179-11.608 1.399-10.25 2.638-20.619 3.717-31.089 1.119-10.989-6.333-23.577-16.463-27.932-26.793-11.529-55.323-22.758-85.713-33.387-7.932-2.778-15.744-5.314-23.497-7.732zM774.972 359.914c54.304 31.628 98.38 62.996 132.686 90.429 8.611 6.893 15.724 8.491 16.044 3.337 0.2-3.097 0.38-6.193 0.38-9.351 0-14.506-0.979-28.771-2.598-42.856-1.259-10.949-9.57-25.494-18.262-32.308-28.851-22.618-68.011-50.329-117.6-79.16-9.531-5.534-18.381-1.019-19.88 9.93-1.399 10.25-2.917 20.38-4.616 30.41-1.818 10.869 4.316 24.016 13.846 29.57zM886.9 564.166c-28.531-26.094-73.944-63.256-136.701-102.277-9.371-5.834-19.58-1.818-22.917 8.711-13.247 41.897-28.511 81.258-44.934 117.92-4.516 10.070-0.54 22.598 8.951 28.212 48.051 28.432 87.771 56.482 119.259 81.158 8.691 6.813 21.419 5.714 28.132-3.037 22.877-29.81 41.678-62.836 55.803-98.241 4.076-10.25 0.54-24.996-7.592-32.448zM775.052 146.909c0.020 1.219 0.040 2.458 0.060 3.677 0.16 11.029 8.032 24.056 17.782 29.211 15.264 8.092 29.79 16.203 43.596 24.216 9.551 5.554 12.228 2.738 5.614-6.094-15.664-20.919-33.267-40.299-52.527-57.881-8.152-7.432-14.726-4.156-14.526 6.873z" />
<glyph unicode="&#xe13c;" glyph-name="ManageForums" horiz-adv-x="1152" d="M1088 37.501c0-45.5 26.028-84.908 64-104.184v-15.938c-10.626-1.454-21.472-2.224-32.5-2.224-68.008 0-129.348 28.528-172.722 74.264-26.222-6.982-54.002-10.752-82.778-10.752-159.058 0-288 114.616-288 256s128.942 256 288 256c159.058 0 288-114.616 288-256 0-55.348-19.764-106.592-53.356-148.466-6.824-14.824-10.644-31.312-10.644-48.7zM512 938.667c278.458 0 504.992-180.614 511.836-405.52-49.182 21.92-103.586 33.52-159.836 33.52-95.56 0-185.816-33.446-254.138-94.178-70.846-62.972-109.862-147.434-109.862-237.822 0-44.672 9.544-87.888 27.736-127.788-5.228-0.126-10.468-0.212-15.736-0.212-27.156 0-53.81 1.734-79.824 5.044-109.978-109.978-241.25-129.7-368.176-132.596v26.916c68.536 33.578 128 94.74 128 164.636 0 9.754-0.758 19.33-2.164 28.696-115.796 76.264-189.836 192.754-189.836 323.304 0 229.75 229.23 416 512 416z" />
<glyph unicode="&#xe13d;" glyph-name="ManageOptions" d="M448 144.157l-205.254 237.254 58.508 58.51 146.746-114.744 274.744 242.744 58.512-58.508zM831.772 810.667c0.078-0.066 0.162-0.15 0.228-0.23v-767.542c-0.066-0.078-0.15-0.162-0.228-0.228h-639.544c-0.080 0.066-0.162 0.15-0.228 0.228v767.544c0.066 0.080 0.15 0.162 0.23 0.228h-128.23v-768c0-70.4 57.6-128 128-128h640c70.4 0 128 57.6 128 128v768h-128.228zM640 810.667v64c0 35.346-28.654 64-64 64h-128c-35.346 0-64-28.654-64-64v-64h-128v-128h512v128h-128zM576 810.667h-128v64h128v-64z" />
<glyph unicode="&#xe13e;" glyph-name="ManageComponents" d="M1024 330.573v192.188l-146.774 24.462c-5.958 18.132-13.222 35.668-21.694 52.5l86.454 121.034-135.896 135.898-120.826-86.304c-16.91 8.554-34.538 15.888-52.768 21.902l-24.402 146.414h-192.188l-24.402-146.416c-18.23-6.014-35.858-13.348-52.766-21.902l-120.828 86.304-135.898-135.898 86.454-121.036c-8.47-16.83-15.734-34.366-21.692-52.498l-146.774-24.46v-192.188l147.118-24.52c5.96-17.968 13.21-35.348 21.642-52.030l-86.748-121.448 135.898-135.896 121.654 86.894c16.602-8.35 33.89-15.528 51.764-21.434l24.578-147.472h192.188l24.578 147.474c17.874 5.906 35.162 13.084 51.766 21.432l121.652-86.892 135.896 135.896-86.744 121.446c8.432 16.682 15.678 34.062 21.64 52.032l147.118 24.518zM512 298.667c-70.692 0-128 57.306-128 128 0 70.692 57.308 128 128 128 70.694 0 128-57.308 128-128 0-70.694-57.306-128-128-128z" />
<glyph unicode="&#xe13f;" glyph-name="ManageUsergroups" d="M976 170.667h-16v208c0 61.756-50.242 112-112 112h-272v128h16c26.4 0 48 21.6 48 48v160c0 26.4-21.6 48-48 48h-160c-26.4 0-48-21.6-48-48v-160c0-26.4 21.6-48 48-48h16v-128h-272c-61.756 0-112-50.244-112-112v-208h-16c-26.4 0-48-21.6-48-48v-160c0-26.4 21.6-48 48-48h160c26.4 0 48 21.6 48 48v160c0 26.4-21.6 48-48 48h-16v192h256v-192h-16c-26.4 0-48-21.6-48-48v-160c0-26.4 21.6-48 48-48h160c26.4 0 48 21.6 48 48v160c0 26.4-21.6 48-48 48h-16v192h256v-192h-16c-26.4 0-48-21.6-48-48v-160c0-26.4 21.6-48 48-48h160c26.4 0 48 21.6 48 48v160c0 26.4-21.6 48-48 48zM192-21.333h-128v128h128v-128zM576-21.333h-128v128h128v-128zM448 682.667v128h128v-128h-128zM960-21.333h-128v128h128v-128z" />
<glyph unicode="&#xe140;" glyph-name="ManagePermissions" d="M832 490.667h-64v192c0 141.384-114.616 256-256 256s-256-114.616-256-256v-192h-64c-35.2 0-64-28.8-64-64v-448c0-35.2 28.8-64 64-64h640c35.2 0 64 28.8 64 64v448c0 35.2-28.8 64-64 64zM512 106.667c-35.346 0-64 28.654-64 64s28.654 64 64 64 64-28.654 64-64-28.654-64-64-64zM640 490.667h-256v192c0 70.58 57.42 128 128 128s128-57.42 128-128v-192z" />
<glyph unicode="&#xe141;" glyph-name="ManageIntegration" d="M128 426.675c0-148.026 88.322-275.968 216.43-336.578l-183.178 488.784c-21.308-46.508-33.252-97.982-33.252-152.206zM771.228 445.539c0 46.234-17.054 78.236-31.654 103.142-19.458 30.82-37.72 56.894-37.72 87.716 0 34.374 26.766 66.376 64.486 66.376 1.704 0 3.32-0.204 4.976-0.302-68.316 60.97-159.34 98.196-259.308 98.196-134.16 0-252.186-67.046-320.844-168.568 9.010-0.282 17.506-0.454 24.712-0.454 40.154 0 102.34 4.752 102.34 4.752 20.69 1.182 23.132-28.434 2.458-30.822 0 0-20.81-2.368-43.952-3.55l139.834-405.106 84.044 245.456-59.822 159.65c-20.688 1.184-40.278 3.55-40.278 3.55-20.702 1.192-18.272 32.002 2.438 30.822 0 0 63.4-4.752 101.134-4.752 40.146 0 102.35 4.752 102.35 4.752 20.702 1.182 23.14-28.434 2.446-30.822 0 0-20.834-2.372-43.948-3.55l138.78-402.018 38.312 124.632c16.58 51.75 29.216 88.9 29.216 120.9zM518.742 393.963l-115.226-326.058c34.416-9.858 70.794-15.238 108.488-15.238 44.716 0 87.604 7.518 127.518 21.2-1.018 1.602-1.974 3.304-2.75 5.154l-118.030 314.942zM848.962 606.095c1.652-11.91 2.588-24.686 2.588-38.458 0-37.93-7.292-80.596-29.202-133.95l-117.286-330.272c114.162 64.828 190.938 185.288 190.938 323.258 0 65.030-17.060 126.16-47.038 179.422zM512 938.667c-282.77 0-512-229.23-512-512s229.23-512 512-512 512 229.23 512 512-229.23 512-512 512zM512-21.333c-247.424 0-448 200.576-448 448s200.576 448 448 448 448-200.576 448-448-200.576-448-448-448z" />
<glyph unicode="&#xe142;" glyph-name="ManageProfiles" d="M256 618.667c0 141.385 114.615 256 256 256s256-114.615 256-256c0-141.385-114.615-256-256-256s-256 114.615-256 256zM768 298.667h-512c-141.384 0-256-114.618-256-256v-64h1024v64c0 141.382-114.616 256-256 256z" />
<glyph unicode="&#xe143;" glyph-name="ManageAdmins" d="M1024 541.617l-353.78 51.408-158.22 320.582-158.216-320.582-353.784-51.408 256-249.538-60.432-352.352 316.432 166.358 316.432-166.358-60.434 352.352 256.002 249.538z" />
<glyph unicode="&#xe144;" glyph-name="ManageUsers" d="M734.994 133.293c-18.952 2.988-19.384 54.654-19.384 54.654s55.688 54.656 67.824 128.152c32.652 0 52.814 78.138 20.164 105.628 1.362 28.94 41.968 227.176-163.598 227.176-205.564 0-164.958-198.236-163.598-227.176-32.654-27.49-12.488-105.628 20.162-105.628 12.134-73.496 67.826-128.152 67.826-128.152s-0.432-51.666-19.384-54.654c-61.048-9.632-289.006-109.316-289.006-218.626h768c0 109.31-227.958 208.994-289.006 218.626zM344.054 115.857c44.094 27.15 97.626 52.308 141.538 67.424-15.752 22.432-33.294 52.936-44.33 89.062-15.406 12.566-27.944 30.532-35.998 52.602-8.066 22.104-11.122 46.852-8.608 69.684 1.804 16.392 6.478 31.666 13.65 45.088-4.35 46.586-7.414 138.034 52.448 204.732 23.214 25.866 52.556 44.46 87.7 55.686-6.274 64.76-39.16 140.77-166.454 140.77-205.564 0-164.958-198.236-163.598-227.176-32.654-27.49-12.488-105.628 20.162-105.628 12.134-73.496 67.826-128.152 67.826-128.152s-0.432-51.666-19.384-54.654c-61.048-9.634-289.006-109.318-289.006-218.628h329.596c4.71 3.074 9.506 6.14 14.458 9.19z" />
<glyph unicode="&#xe145;" glyph-name="ManagePlugins" d="M1024 656.167l-90.506 90.5-178.746-178.752-101.5 101.502 178.75 178.75-90.5 90.5-178.75-178.75-114.748 114.75-86.626-86.624 512.002-512.002 86.624 86.624-114.752 114.752zM274.748 189.413c165.768-165.762 385.194-36.362 519.292 75.464l-443.824 443.824c-111.824-134.096-241.228-353.522-75.468-519.288zM191.998 234.663l127.994-127.996-191.992-191.992-127.996 127.994z" />
<glyph unicode="&#xe146;" glyph-name="ManageThemes" d="M1024 362.667v384h-192v64c0 35.2-28.8 64-64 64h-704c-35.2 0-64-28.8-64-64v-192c0-35.2 28.8-64 64-64h704c35.2 0 64 28.8 64 64v64h128v-256h-576v-128h-32c-17.674 0-32-14.326-32-32v-320c0-17.674 14.326-32 32-32h128c17.674 0 32 14.326 32 32v320c0 17.674-14.326 32-32 32h-32v64h576zM768 746.667h-704v64h704v-64z" />
<glyph unicode="&#xe147;" glyph-name="ManageToolbox" d="M896 682.667h-192v128c0 35.2-28.8 64-64 64h-256c-35.2 0-64-28.8-64-64v-128h-192c-70.4 0-128-57.6-128-128v-512c0-70.4 57.6-128 128-128h768c70.4 0 128 57.6 128 128v512c0 70.4-57.6 128-128 128zM384 810.667h256v-128h-256v128zM768 234.667h-192v-192h-128v192h-192v128h192v192h128v-192h192v-128z" />
<glyph unicode="&#xe148;" glyph-name="ManageEmails" d="M448 362.667l-64 64-192-192 192-192 64 64-128 128zM576 106.667l64-64 192 192-192 192-64-64 128-128zM903.432 739.237l-142.864 142.862c-31.112 31.112-92.568 56.568-136.568 56.568h-480c-44 0-80-36-80-80v-864c0-44 36-80 80-80h736c44 0 80 36 80 80v608c0 44-25.456 105.458-56.568 136.57zM858.178 693.981c3.13-3.13 6.25-6.974 9.28-11.314h-163.458v163.456c4.34-3.030 8.184-6.15 11.314-9.28l142.864-142.862zM896-5.333c0-8.672-7.328-16-16-16h-736c-8.672 0-16 7.328-16 16v864c0 8.672 7.328 16 16 16h480c4.832 0 10.254-0.61 16-1.704v-254.296h254.296c1.094-5.746 1.704-11.166 1.704-16v-608z" />
<glyph unicode="&#xe149;" glyph-name="ManagePolls" d="M288 554.667h-192c-17.6 0-32-14.4-32-32v-576c0-17.6 14.4-32 32-32h192c17.6 0 32 14.4 32 32v576c0 17.6-14.4 32-32 32zM288-21.333h-192v256h192v-256zM608 682.667h-192c-17.6 0-32-14.4-32-32v-704c0-17.6 14.4-32 32-32h192c17.6 0 32 14.4 32 32v704c0 17.6-14.4 32-32 32zM608-21.333h-192v320h192v-320zM928 810.667h-192c-17.6 0-32-14.4-32-32v-832c0-17.6 14.4-32 32-32h192c17.6 0 32 14.4 32 32v832c0 17.6-14.4 32-32 32zM928-21.333h-192v384h192v-384z" />
<glyph unicode="&#xe14a;" glyph-name="ManagePM" d="M928 810.667h-832c-52.8 0-96-43.2-96-96v-640c0-52.8 43.2-96 96-96h832c52.8 0 96 43.2 96 96v640c0 52.8-43.2 96-96 96zM398.74 388.295l-270.74-210.892v501.642l270.74-290.75zM176.38 682.667h671.24l-335.62-252-335.62 252zM409.288 376.969l102.712-110.302 102.71 110.302 210.554-270.302h-626.528l210.552 270.302zM625.26 388.295l270.74 290.75v-501.642l-270.74 210.892z" />
<glyph unicode="&#xe14b;" glyph-name="ManageTags" horiz-adv-x="1088" d="M992 874.667h-224c-52.8 0-126.546-30.546-163.882-67.882l-376.236-376.236c-37.334-37.334-37.334-98.428 0-135.764l280.236-280.234c37.334-37.336 98.428-37.336 135.764 0l376.234 376.234c37.338 37.336 67.884 111.082 67.884 163.882v224c0 52.8-43.2 96-96 96zM864 554.667c-53.020 0-96 42.98-96 96s42.98 96 96 96 96-42.98 96-96-42.98-96-96-96zM86.626 340.041l342.378-342.378c-36.264-19.16-82.462-13.538-112.886 16.888l-280.236 280.234c-37.334 37.336-37.334 98.43 0 135.764l376.236 376.236c37.336 37.336 111.082 67.882 163.882 67.882l-489.374-489.372c-12.444-12.446-12.444-32.808 0-45.254z" />
<glyph unicode="&#xe14c;" glyph-name="Warnings" d="M96 490.667c-73 0-32 192 32 192-32 0 0 160 64 160 0 64 64 96 128 96 270.352 0 175.264-67.65 448-96v-512c-240.922-72.268-480-253.424-480-416-53 0-192 64 0 384 0 0-160 0-192 0-96 0-64 192 0 192zM832 330.667v512h-64v32h128c35.2 0 64-43.2 64-96v-384c0-52.8-28.8-96-64-96h-128v32h64z" />
<glyph unicode="&#xe14d;" glyph-name="Event" d="M512 362.667l256 256h-192v256h-128v-256h-192zM744.726 467.395l-71.74-71.742 260.080-96.986-421.066-157.018-421.066 157.018 260.080 96.986-71.742 71.742-279.272-104.728v-256l512-192 512 192v256z" />
<glyph unicode="&#xe14e;" glyph-name="ToolsStatus" d="M512 938.667c-282.77 0-512-229.23-512-512s229.23-512 512-512 512 229.23 512 512-229.23 512-512 512zM512 10.667c-229.75 0-416 186.25-416 416s186.25 416 416 416 416-186.25 416-416-186.25-416-416-416zM448 682.667h128v-128h-128zM640 170.667h-256v64h64v192h-64v64h192v-256h64z" />
<glyph unicode="&#xe14f;" glyph-name="Log" d="M512 938.667c-282.77 0-512-229.23-512-512s229.23-512 512-512 512 229.23 512 512-229.23 512-512 512zM512 10.667c-229.75 0-416 186.25-416 416s186.25 416 416 416 416-186.25 416-416-186.25-416-416-416zM448 682.667h128v-128h-128zM640 170.667h-256v64h64v192h-64v64h192v-256h64z" />
<glyph unicode="&#xe150;" glyph-name="question" d="M448 234.667h128v-128h-128zM704 682.667c35.346 0 64-28.654 64-64v-192l-192-128h-128v64l192 128v64h-320v128h384zM512 842.667c-111.118 0-215.584-43.272-294.156-121.844s-121.844-183.038-121.844-294.156c0-111.118 43.272-215.584 121.844-294.156s183.038-121.844 294.156-121.844c111.118 0 215.584 43.272 294.156 121.844s121.844 183.038 121.844 294.156c0 111.118-43.272 215.584-121.844 294.156s-183.038 121.844-294.156 121.844zM512 938.667v0c282.77 0 512-229.23 512-512s-229.23-512-512-512c-282.77 0-512 229.23-512 512s229.23 512 512 512z" />
<glyph unicode="&#xe151;" glyph-name="RepUserButton" horiz-adv-x="819" d="M821.34 91.511c0 0-106.383 182.84-125.466 215.632 21.711 6.624 44.839 12.472 54.449 29.065 16.016 27.649-12.494 73.004-5.007 102.638 7.711 30.5 53.232 56.891 53.232 87.894 0 30.204-47.062 65.492-54.779 95.813-7.538 29.63 20.885 75.034 4.817 102.648-16.067 27.618-69.585 25.348-91.614 46.546-22.668 21.815-22.598 75.19-49.937 89.809-27.452 14.674-72.066-14.983-102.544-7.958-30.132 6.944-57.053 52.312-88.526 52.312-31.939 0-82.743-51.463-90.71-53.315-30.464-7.082-75.135 22.502-102.557 7.766-27.314-14.669-27.147-68.049-49.771-89.9-21.994-21.238-75.513-19.067-91.531-46.715-16.016-27.643 12.494-72.988 5.010-102.638-7.504-29.725-54.61-59.845-54.61-94.222 0-31.005 45.635-57.314 53.393-87.798 7.541-29.63-20.883-75.029-4.815-102.654 8.747-15.037 28.593-21.209 48.414-27.144 2.313-0.692 6.688-3.279 3.724-7.597-13.561-23.406-122.7-211.765-122.7-211.765-8.682-14.983-1.631-27.825 15.664-28.552l84.658-3.53c17.295-0.728 38.991-13.295 48.222-27.939l45.174-71.682c9.233-14.642 23.88-14.369 32.559 0.611 0 0 126.396 218.217 126.448 218.28 2.536 2.963 5.085 2.354 6.305 1.319 13.829-11.776 33.107-23.522 49.198-23.522 15.779 0 30.391 11.058 44.845 23.39 1.176 1.002 4.038 3.056 6.131-1.207 0.034-0.068 126.29-217.091 126.29-217.091 8.703-14.962 23.355-15.215 32.556-0.554l45.047 71.768c9.206 14.653 30.878 27.27 48.174 28.024l84.649 3.689c17.288 0.759 24.315 13.62 15.612 28.577zM555.871 287.801c-93.6-54.454-205.952-48.619-291.767 5.509-125.743 80.543-167.117 247.159-91.525 377.625 76.454 131.972 244.516 178.54 377.677 106.016 0.699-0.381 1.391-0.774 2.086-1.163 0.986-0.547 1.971-1.101 2.953-1.66 41.081-23.686 76.705-58.059 102.213-101.905 77.961-134.008 32.371-306.462-101.636-384.423zM534.466 734.691c-0.388 0.226-0.783 0.435-1.171 0.658-71.134 41.169-161.797 44.179-237.781-0.028-112.758-65.601-151.126-210.703-85.527-323.458 20.017-34.408 47.448-61.877 79.096-81.588 2.691-1.704 5.415-3.38 8.196-4.992 112.88-65.396 257.904-26.765 323.298 86.11 65.391 112.88 26.771 257.902-86.11 323.298zM562.704 550.159l-39.524-38.525c-12.242-11.93-19.894-35.481-17-52.33l9.33-54.397c2.89-16.85-7.123-24.125-22.255-16.171l-48.854 25.685c-15.132 7.955-39.892 7.955-55.024 0l-48.852-25.685c-15.132-7.955-25.149-0.679-22.258 16.171l9.33 54.397c2.89 16.85-4.761 40.4-17.002 52.33l-39.521 38.525c-12.244 11.93-8.416 23.706 8.501 26.167l54.618 7.937c16.917 2.458 36.949 17.012 44.516 32.342l24.426 49.492c7.566 15.329 19.948 15.329 27.511 0l24.429-49.492c7.566-15.329 27.596-29.883 44.516-32.342l54.618-7.937c16.915-2.461 20.741-14.236 8.499-26.167z" />
<glyph unicode="&#xe152;" glyph-name="ToolsReassign" d="M256 618.667c0 141.385 114.615 256 256 256s256-114.615 256-256c0-141.385-114.615-256-256-256s-256 114.615-256 256zM768 298.667h-512c-141.384 0-256-114.618-256-256v-64h1024v64c0 141.382-114.616 256-256 256z" />
<glyph unicode="&#xe153;" glyph-name="TagsToolbar" d="M1015.332 942.795c-6.090 6.084-14.523 9.219-23.105 8.569l-388.448-29.271c-7.041-0.53-13.671-3.567-18.663-8.562l-576.448-576.443c-11.538-11.538-11.538-30.238 0-41.769l359.179-359.182c11.538-11.531 30.238-11.534 41.776 0l576.439 576.444c4.998 4.994 8.040 11.614 8.565 18.666l29.268 388.449c0.644 8.574-2.48 17.010-8.565 23.1zM845.923 661.36c-30.935-30.929-81.097-30.929-112.028 0-30.929 30.932-30.925 81.088 0.008 112.020 30.925 30.932 81.085 30.932 112.020 0 30.929-30.929 30.929-81.085 0-112.020z" />
<glyph unicode="&#xe154;" glyph-name="WriteDenied" d="M832 490.667h-64v192c0 141.384-114.616 256-256 256s-256-114.616-256-256v-192h-64c-35.2 0-64-28.8-64-64v-448c0-35.2 28.8-64 64-64h640c35.2 0 64 28.8 64 64v448c0 35.2-28.8 64-64 64zM512 106.667c-35.346 0-64 28.654-64 64s28.654 64 64 64 64-28.654 64-64-28.654-64-64-64zM640 490.667h-256v192c0 70.58 57.42 128 128 128s128-57.42 128-128v-192z" />
<glyph unicode="&#xe155;" glyph-name="EditHistory" d="M895.979 597.178v-541.693c0-70.685-57.309-127.993-127.993-127.993h-639.967c-70.685 0-127.993 57.309-127.993 127.993v639.967c0 70.685 57.309 127.993 127.993 127.993h541.66l-127.931-127.993h-413.728v-639.967h639.967v413.666l127.993 128.027zM797.735 860.946l-45.248-45.248 135.744-135.775 45.248 45.248-135.744 135.775zM888.229 951.44l-45.248-45.248 135.744-135.775 45.248 45.279-135.744 135.744zM300.013 363.095l135.744-135.744 407.228 407.293-135.744 135.775-407.228-407.324zM256.013 183.48h127.993l-127.993 127.993v-127.993z" />
<glyph unicode="&#xe156;" glyph-name="ManageReputation" horiz-adv-x="819" d="M821.34 91.511c0 0-106.383 182.84-125.466 215.632 21.711 6.624 44.839 12.472 54.449 29.065 16.016 27.649-12.494 73.004-5.007 102.638 7.711 30.5 53.232 56.891 53.232 87.894 0 30.204-47.062 65.492-54.779 95.813-7.538 29.63 20.885 75.034 4.817 102.648-16.067 27.618-69.585 25.348-91.614 46.546-22.668 21.815-22.598 75.19-49.937 89.809-27.452 14.674-72.066-14.983-102.544-7.958-30.132 6.944-57.053 52.312-88.526 52.312-31.939 0-82.743-51.463-90.71-53.315-30.464-7.082-75.135 22.502-102.557 7.766-27.314-14.669-27.147-68.049-49.771-89.9-21.994-21.238-75.513-19.067-91.531-46.715-16.016-27.643 12.494-72.988 5.010-102.638-7.504-29.725-54.61-59.845-54.61-94.222 0-31.005 45.635-57.314 53.393-87.798 7.541-29.63-20.883-75.029-4.815-102.654 8.747-15.037 28.593-21.209 48.414-27.144 2.313-0.692 6.688-3.279 3.724-7.597-13.561-23.406-122.7-211.765-122.7-211.765-8.682-14.983-1.631-27.825 15.664-28.552l84.658-3.53c17.295-0.728 38.991-13.295 48.222-27.939l45.174-71.682c9.233-14.642 23.88-14.369 32.559 0.611 0 0 126.396 218.217 126.448 218.28 2.536 2.963 5.085 2.354 6.305 1.319 13.829-11.776 33.107-23.522 49.198-23.522 15.779 0 30.391 11.058 44.845 23.39 1.176 1.002 4.038 3.056 6.131-1.207 0.034-0.068 126.29-217.091 126.29-217.091 8.703-14.962 23.355-15.215 32.556-0.554l45.047 71.768c9.206 14.653 30.878 27.27 48.174 28.024l84.649 3.689c17.288 0.759 24.315 13.62 15.612 28.577zM555.871 287.801c-93.6-54.454-205.952-48.619-291.767 5.509-125.743 80.543-167.117 247.159-91.525 377.625 76.454 131.972 244.516 178.54 377.677 106.016 0.699-0.381 1.391-0.774 2.086-1.163 0.986-0.547 1.971-1.101 2.953-1.66 41.081-23.686 76.705-58.059 102.213-101.905 77.961-134.008 32.371-306.462-101.636-384.423zM534.466 734.691c-0.388 0.226-0.783 0.435-1.171 0.658-71.134 41.169-161.797 44.179-237.781-0.028-112.758-65.601-151.126-210.703-85.527-323.458 20.017-34.408 47.448-61.877 79.096-81.588 2.691-1.704 5.415-3.38 8.196-4.992 112.88-65.396 257.904-26.765 323.298 86.11 65.391 112.88 26.771 257.902-86.11 323.298zM562.704 550.159l-39.524-38.525c-12.242-11.93-19.894-35.481-17-52.33l9.33-54.397c2.89-16.85-7.123-24.125-22.255-16.171l-48.854 25.685c-15.132 7.955-39.892 7.955-55.024 0l-48.852-25.685c-15.132-7.955-25.149-0.679-22.258 16.171l9.33 54.397c2.89 16.85-4.761 40.4-17.002 52.33l-39.521 38.525c-12.244 11.93-8.416 23.706 8.501 26.167l54.618 7.937c16.917 2.458 36.949 17.012 44.516 32.342l24.426 49.492c7.566 15.329 19.948 15.329 27.511 0l24.429-49.492c7.566-15.329 27.596-29.883 44.516-32.342l54.618-7.937c16.915-2.461 20.741-14.236 8.499-26.167z" />
<glyph unicode="&#xe900;" glyph-name="PlupAttachmentEditor" d="M512-72.524c-47.103 0-92.499 6.144-136.19 18.432-43.69 12.293-84.479 29.524-122.366 51.711s-72.362 48.81-103.422 79.871c-31.060 31.057-57.684 65.535-79.871 103.422-22.187 37.89-39.423 78.676-51.711 122.368-12.288 43.688-18.432 89.084-18.432 136.188s6.144 92.499 18.432 136.19 29.524 84.479 51.711 122.366 48.81 72.362 79.871 103.422 65.535 57.684 103.422 79.871 78.676 39.423 122.366 51.711 89.086 18.432 136.19 18.432c70.314 0 136.702-13.483 199.165-40.447s116.734-63.487 162.813-109.566 82.602-100.35 109.566-162.813 40.447-128.851 40.447-199.165c0-47.103-6.144-92.499-18.432-136.19-12.293-43.685-29.524-84.474-51.711-122.366-22.187-37.887-48.81-72.362-79.871-103.422-31.057-31.060-65.535-57.689-103.422-79.871-37.89-22.187-78.676-39.423-122.369-51.711-43.686-12.288-89.083-18.432-136.187-18.432zM365.571 129.2c27.989 4.091 54.954 19.115 80.895 45.055l205.815 205.815c0 0 17.067 16.896 51.204 50.687 34.127 33.791 43.007 42.495 26.622 26.112 30.716 32.084 50.172 63.487 58.369 94.206 2.731 8.875 4.432 18.944 5.12 30.207 0.683 11.264-0.341 23.211-3.072 35.839s-7.847 25.771-15.36 39.423c-7.509 13.653-18.437 27.648-32.767 41.983-36.863 36.863-76.289 54.271-118.273 52.223s-83.455-23.211-124.411-63.487l-261.115-262.137c-5.461-5.461-8.192-12.454-8.192-20.992 0-8.533 2.731-15.531 8.192-20.992 6.144-6.144 13.483-9.216 22.016-9.216s15.531 3.072 20.992 9.216l261.115 261.118c19.115 19.115 36.518 31.914 52.223 38.399 15.701 6.485 30.036 9.045 43.007 7.68s24.576-5.461 34.815-12.288c10.24-6.827 19.115-13.995 26.624-21.504 29.354-29.354 39.594-59.391 30.719-90.11-4.779-19.797-19.12-41.983-43.007-66.559l-76.799-76.799c0 0-21.333-21.163-63.999-63.487s-64.17-63.658-64.511-63.999l-78.335-78.332c-17.067-17.067-32.426-26.624-46.079-28.674-2.731 0-7.68 0.515-14.848 1.536s-16.213 6.658-27.136 16.899c-16.384 16.384-23.552 32.426-21.504 48.127 0.683 8.878 3.584 16.899 8.704 24.064 5.12 7.168 10.411 13.488 15.872 18.944l238.588 238.585c8.192 8.192 15.189 14.165 20.992 17.92 5.808 3.755 10.416 6.144 13.829 7.168s5.968 1.024 7.68 0c1.707-1.024 2.896-1.877 3.584-2.56 0.683-1.365 1.536-2.901 2.56-4.608s1.024-4.267 0-7.68-3.413-7.851-7.168-13.312-9.725-12.288-17.92-20.48l-219.135-219.132 41.983-43.007 220.156 219.132c15.701 15.701 26.965 30.207 33.791 43.519s10.411 25.429 10.752 36.351-1.708 20.651-6.144 29.183c-4.437 8.533-9.728 15.872-15.872 22.016-5.461 4.779-12.117 9.557-19.968 14.336s-17.408 7.339-28.676 7.68c-11.259 0.341-23.888-2.731-37.887-9.216s-29.183-17.92-45.567-34.303l-238.585-238.588c-24.576-24.576-38.57-51.199-41.983-79.871-1.365-11.605 0.171-25.941 4.608-43.007 4.437-17.062 16.213-35.156 35.327-54.271 13.653-14.336 27.307-23.893 40.959-28.671s26.283-7.168 37.887-7.168c6.144 0 10.581 0.341 13.312 1.024z" />
<glyph unicode="&#xe901;" glyph-name="EditorCancel" d="M1023.914 713.987l-237.394 237.48-274.606-274.52-274.433 274.52-237.48-237.48 274.606-274.433-274.606-274.606 237.48-237.48 274.433 274.52 274.606-274.52 237.394 237.48-274.52 274.606 274.52 274.433z" />
<glyph unicode="&#xe902;" glyph-name="EditorOptions" d="M1020.781 496.318c-1.619 14.394-18.402 25.211-32.915 25.211-46.92 0-88.556 27.55-106.018 70.158-17.839 43.64-6.336 94.534 28.632 126.611 11.007 10.062 12.344 26.906 3.113 38.607-24.015 30.495-51.31 58.042-81.112 81.915-11.67 9.365-28.792 8.062-38.912-3.143-30.518-33.799-85.337-46.36-127.697-28.686-44.082 18.543-71.88 63.212-69.159 111.161 0.895 15.061-10.112 28.156-25.127 29.905-38.245 4.423-76.825 4.561-115.185 0.305-14.844-1.638-25.851-14.425-25.352-29.295 1.669-47.477-26.464-91.364-70.108-109.241-41.853-17.096-96.287-4.641-126.744 28.857-10.066 11.034-26.91 12.39-38.637 3.25-30.686-24.076-58.594-51.645-82.83-81.889-9.453-11.758-8.062-28.8 3.056-38.916 35.635-32.271 47.141-83.607 28.628-127.75-17.675-42.085-61.376-69.209-111.405-69.209-16.234 0.522-27.798-10.375-29.573-25.135-4.503-38.466-4.557-77.66-0.221-116.438 1.608-14.455 18.902-25.177 33.574-25.177 44.585 1.139 87.39-26.464 105.347-70.162 17.899-43.64 6.393-94.504-28.628-126.607-10.954-10.062-12.344-26.88-3.113-38.58 23.79-30.301 51.089-57.874 80.997-81.946 11.731-9.453 28.8-8.119 38.969 3.086 30.633 33.883 85.447 46.421 127.639 28.712 44.192-18.486 71.99-63.151 69.27-111.127-0.888-15.069 10.173-28.187 25.127-29.909 19.564-2.282 39.247-3.421 58.983-3.421 18.734 0 37.472 1.029 56.205 3.113 14.848 1.638 25.847 14.425 25.348 29.322-1.718 47.45 26.464 91.338 70.051 109.184 42.135 17.21 96.34 4.614 126.801-28.849 10.123-11.011 26.849-12.341 38.641-3.231 30.629 24.018 58.48 51.565 82.83 81.893 9.449 11.731 8.115 28.8-3.059 38.912-35.635 32.271-47.199 83.615-28.686 127.727 17.404 41.525 59.482 69.407 104.741 69.407l6.332-0.164c14.68-1.193 28.187 10.116 29.966 25.1 4.511 38.5 4.564 77.66 0.229 116.438zM512.81 267.603c-94.176 0-170.78 76.604-170.78 170.78 0 94.172 76.604 170.78 170.78 170.78 94.172 0 170.777-76.608 170.777-170.78 0-94.176-76.604-170.78-170.777-170.78z" />
<glyph unicode="&#xe903;" glyph-name="ToolsLink" d="M561.674 308.548c-5.707 2.042-12.104 0.618-16.377-3.696l-201.839-201.818c-22.387-22.397-52.198-34.701-83.946-34.701s-61.548 12.324-83.925 34.701c-46.282 46.303-46.282 121.61 0 167.892l201.807 201.786c4.293 4.293 5.728 10.68 3.686 16.387-2.042 5.717-7.204 9.748-13.235 10.335l-140.908 14c-4.722 0.544-9.33-1.183-12.659-4.523l-138.353-138.343c-48.962-48.952-75.925-114.155-75.925-183.588s26.963-134.626 75.925-183.588c48.952-48.962 114.155-75.925 183.588-75.925s134.636 26.963 183.598 75.925l138.353 138.343c3.33 3.319 4.995 7.989 4.523 12.659l-13.979 140.919c-0.607 6.031-4.607 11.183-10.335 13.235zM948.085 875.542c-48.962 48.962-114.165 75.925-183.598 75.925s-134.636-26.963-183.588-75.925l-138.364-138.353c-3.33-3.319-4.995-7.979-4.523-12.659l14-140.919c0.597-6.042 4.628-11.193 10.345-13.235 5.717-2.052 12.094-0.618 16.387 3.686l201.797 201.828c22.387 22.387 52.198 34.711 83.946 34.711s61.559-12.335 83.956-34.711c46.282-46.282 46.282-121.589 0-167.881l-201.818-201.807c-4.293-4.293-5.728-10.691-3.686-16.398s7.204-9.738 13.235-10.324l140.898-14c0.524-0.073 1.037-0.094 1.539-0.094 4.147 0 8.146 1.633 11.12 4.597l138.353 138.364c101.223 101.234 101.223 265.963 0 367.197zM92.574 556.753c0.094 0 0.188 0 0.272 0l169.567 2.953c7.759 0.136 14.261 5.916 15.288 13.623 1.026 7.696-3.717 14.994-11.173 17.172l-162.813 47.475c-4.398 1.288-9.141 0.586-12.963-1.927-3.832-2.492-6.387-6.534-6.995-11.078l-6.754-50.428c-0.607-4.544 0.796-9.11 3.843-12.523 2.974-3.351 7.246-5.267 11.728-5.267zM360.998 684.938c1.969-6.764 8.178-11.309 15.068-11.309 0.691 0 1.393 0.042 2.094 0.147 7.696 1.026 13.487 7.529 13.623 15.288l2.942 169.567c0.073 4.586-1.843 8.963-5.267 12s-7.989 4.45-12.534 3.822l-50.428-6.785c-4.534-0.607-8.576-3.173-11.068-7.005s-3.194-8.565-1.916-12.953l47.486-162.772zM931.164 322.181l-169.557-2.942c-7.769-0.147-14.261-5.906-15.298-13.623-1.037-7.696 3.707-14.994 11.162-17.183l162.813-47.486c1.455-0.408 2.921-0.628 4.398-0.628 3.026 0 5.989 0.869 8.565 2.544 3.832 2.492 6.377 6.534 6.995 11.089l6.764 50.418c0.607 4.555-0.796 9.11-3.843 12.523-3.047 3.455-7.623 5.487-12 5.288zM663.002 193.975c-2.167 7.455-9.403 12.293-17.162 11.162-7.686-1.047-13.476-7.539-13.623-15.298l-2.942-169.536c-0.073-4.586 1.843-8.963 5.256-12 2.89-2.576 6.628-3.979 10.45-3.979 0.691 0 1.393 0.052 2.094 0.157l50.418 6.764c4.544 0.607 8.586 3.162 11.089 6.995 2.492 3.843 3.194 8.576 1.927 12.953l-47.507 162.782z" />
<glyph unicode="&#xe904;" glyph-name="EditorSave" d="M832 951.467h-64v-416h-512v416h-256v-1024h1024v832l-192 192zM896-8.533h-768v448h768v-448zM192 375.467h640v-64h-640v64zM192 247.467h640v-64h-640v64zM192 119.467h640v-64h-640v64zM576 887.467h128v-288h-128v288z" />
<glyph unicode="&#xe905;" glyph-name="EditorSmileys" d="M512 951.467c-282.77 0-512-229.23-512-512s229.23-512 512-512 512 229.23 512 512-229.23 512-512 512zM704 695.467c35.348 0 64-28.654 64-64s-28.652-64-64-64-64 28.654-64 64 28.652 64 64 64zM320 695.467c35.346 0 64-28.654 64-64s-28.654-64-64-64-64 28.654-64 64 28.654 64 64 64zM512 119.467c-116.51 0-218.464 62.274-274.426 155.344l82.328 49.396c39.174-65.148 110.542-108.74 192.098-108.74 81.554 0 152.926 43.592 192.098 108.74l82.328-49.396c-55.962-93.070-157.914-155.344-274.426-155.344z" />
<glyph unicode="&#xe906;" glyph-name="TopicExpireEd" d="M754.034 790.11c-14.894 0-25.445 2.896-31.647 8.688-6.212 5.792-9.315 15.308-9.315 28.548v86.884c0 14.069 3.103 23.79 9.315 29.168 6.206 5.379 16.756 8.068 31.647 8.068 15.722 0 26.686-2.689 32.892-8.068 6.212-5.379 9.315-15.101 9.315-29.168v-86.884c0-13.24-3.103-22.755-9.315-28.548-6.206-5.792-17.17-8.688-32.892-8.688zM269.964 790.11c-14.894 0-25.445 2.896-31.651 8.688s-9.309 15.308-9.309 28.548v86.884c0 14.069 3.103 23.79 9.309 29.168s16.756 8.068 31.651 8.068c15.722 0 26.686-2.689 32.892-8.068s9.309-15.101 9.309-29.168v-86.884c0-13.24-3.103-22.755-9.309-28.548s-17.17-8.688-32.892-8.688zM947.664 870.789c4.959 0 9.309-1.655 13.033-4.965s5.585-7.447 5.585-12.412v-183.698c0-4.965-1.862-9.102-5.585-12.412s-8.070-4.965-13.033-4.965h-871.328c-4.965 0-9.309 1.655-13.033 4.965s-5.585 7.447-5.585 12.412v183.698c0 4.965 1.862 9.102 5.585 12.412s8.068 4.965 13.033 4.965h94.332v-43.442c0-11.585 1.655-22.962 4.965-34.133s8.895-21.307 16.756-30.41c7.861-9.102 18.204-16.549 31.030-22.342s28.341-8.688 46.545-8.688 33.719 2.896 46.545 8.688 23.376 13.24 31.651 22.342 14.067 19.239 17.377 30.41c3.31 11.171 4.965 22.549 4.965 34.133v43.442h284.236v-43.442c0-11.585 1.655-22.962 4.965-34.133s8.895-21.307 16.756-30.41 18.21-16.549 31.030-22.342c12.826-5.792 28.347-8.688 46.545-8.688 18.21 0 33.719 2.896 46.545 8.688s23.376 13.24 31.651 22.342c8.269 9.102 14.067 19.239 17.371 30.41 3.31 11.171 4.965 22.549 4.965 34.133v43.442h93.098zM741.622 423.955c0 5.788-3.31 8.684-9.93 8.684h-37.236c-1.649 0-2.896-0.414-3.724-1.235l-106.744-52.131c-3.31-2.488-4.965-5.792-4.965-9.93l8.688-60.813c0-1.655 0.414-2.902 1.241-3.73 0.821-0.821 1.649-2.069 2.482-3.724 2.482-1.649 5.379-1.649 8.688 0l48.407 18.624v-245.765c0-5.788 2.896-8.684 8.682-8.684h74.478c6.62 0 9.93 2.896 9.93 8.684v350.018zM360.572 60.282c47.166 0 85.023 10.757 113.57 32.271 28.548 21.508 42.822 50.476 42.822 86.884 0 26.479-7.447 46.338-22.342 59.578s-30.616 23.169-47.166 29.789c39.719 18.206 59.578 46.34 59.578 84.398 0 25.652-11.171 46.131-33.513 61.44s-52.131 22.962-89.367 22.962c-41.373 0-75.713-6.206-103.020-18.618-4.137-3.31-5.792-6.626-4.965-9.93l8.688-60.813c0-3.316 1.241-5.379 3.724-6.212 2.482-2.482 5.379-2.896 8.688-1.241 23.169 12.412 45.925 18.624 68.266 18.624 20.687 0 32.685-3.103 35.995-9.309 3.31-6.212 4.965-11.378 4.965-15.515 0-6.62-3.724-13.86-11.171-21.721s-26.065-12.619-55.854-14.274c-5.792 0-8.688-2.896-8.688-8.688v-62.060c0-5.792 2.896-8.688 8.688-8.688 34.754-1.655 57.095-5.999 67.025-13.033 9.93-7.040 14.894-17.584 14.894-31.651 0-10.757-4.965-19.446-14.894-26.065-9.93-6.626-22.755-9.93-38.477-9.93-14.894 0-28.755 1.241-41.58 3.724-12.826 2.488-26.272 6.212-40.339 11.173-2.482 0.825-4.965 0.825-7.447 0-2.482-1.651-3.724-3.726-3.724-6.208l-8.688-62.060c-1.655-4.137 0-7.040 4.965-8.688 13.24-5.792 27.72-9.93 43.442-12.412s31.030-3.726 45.925-3.726zM947.664 589.035c4.959 0 9.309-1.655 13.033-4.965s5.585-7.447 5.585-12.412v-625.567c0-4.965-1.862-9.315-5.585-13.039s-8.070-5.585-13.033-5.585h-871.328c-4.965 0-9.309 1.862-13.033 5.585s-5.585 8.072-5.585 13.039v625.567c0 4.965 1.862 9.102 5.585 12.412s8.068 4.965 13.033 4.965h871.328z" />
<glyph unicode="&#xe907;" glyph-name="PostMultiple" d="M683.903 951.467h-434.419v-894.028h655.018v673.428h-220.6zM727 951.467v-177.497h177.502zM774.441 24.666v-42.642h-600.378v839.39h41.906v54.558h-96.471v-948.505h709.501v97.199z" />
<glyph unicode="&#xe908;" glyph-name="PollToolbar" d="M383.999-72.533h256v1024h-256v-1024zM0-72.533h256v512.001h-256v-512.001zM767.999 631.468v-703.999h256v703.999h-256z" />
<glyph unicode="&#xe909;" glyph-name="EditorPreview" d="M451.147 216.417c0 53.801 16.882 103.792 45.634 144.852h-289.378c-15.030 0-27.228 12.197-27.228 27.228s12.198 27.228 27.228 27.228h341.002c43.020 33.763 97.257 53.911 156.069 53.911 20.368 0 40.188-2.396 59.248-6.97v431.179c0 31.803-25.811 57.614-57.614 57.614h-411.685v-19.060c0.218-1.96 0.328-4.030 0.328-6.099v-157.813c0-44.762-36.376-81.139-81.139-81.139h-157.813c-1.634 0-3.376 0.109-5.010 0.218h-20.149v-603.369c0-31.803 25.812-57.614 57.614-57.614h448.716c-52.497 46.505-85.824 114.357-85.824 189.833zM207.403 563.408h402.862c15.031 0 27.228-12.198 27.228-27.228s-12.197-27.228-27.228-27.228h-402.862c-15.030 0-27.228 12.198-27.228 27.228s12.197 27.228 27.228 27.228zM408.78 222.407h-201.486c-15.030 0-27.228 12.197-27.228 27.228s12.198 27.228 27.228 27.228h201.486c15.031 0 27.228-12.198 27.228-27.228s-12.197-27.228-27.228-27.228zM55.799 720.023h157.813c26.793 0 48.465 21.674 48.465 48.465v157.813c0 14.594-11.98 24.288-24.397 24.288-5.99 0-11.98-2.178-16.99-7.188l-182.1-181.991c-15.248-15.248-4.465-41.386 17.208-41.386zM909.99 68.623l-23.525 23.525c24.287 35.396 38.444 78.199 38.444 124.377 0 88.872-52.822 165.546-128.624 200.506-5.337 2.506-10.782 4.684-16.337 6.753-5.337 1.96-10.782 3.703-16.337 5.228-18.843 5.229-38.663 8.060-59.248 8.060-33.763 0-65.782-7.624-94.318-21.238-27.556-13.070-51.949-31.694-71.773-54.455-33.871-38.772-54.347-89.417-54.347-144.852 0-80.704 43.564-151.387 108.366-189.832 10.675-6.317 22.002-11.872 33.874-16.337 24.394-9.258 50.752-14.377 78.416-14.377 9.039 0 17.86 0.545 26.573 1.634 35.94 4.357 69.159 17.317 97.695 36.921l11.653-11.872 83.209-83.209c7.952-7.951 18.406-11.98 28.862-11.98s20.91 4.030 28.862 11.98c15.901 15.902 15.901 41.822 0 57.723l-71.445 71.446zM704.473 355.279c21.129 0 41.277-4.792 59.248-13.287 5.665-2.723 11.11-5.772 16.337-9.149 5.773-3.702 11.219-7.951 16.337-12.415 28.753-25.486 46.941-62.624 46.941-104.010s-18.187-78.526-46.941-104.010c-5.118-4.574-10.563-8.713-16.337-12.416-5.227-3.376-10.672-6.426-16.337-9.149-17.971-8.495-38.010-13.286-59.248-13.286-76.564 0-138.862 62.296-138.862 138.862 0 76.562 62.189 138.86 138.862 138.86z" />
<glyph unicode="&#xe90a;" glyph-name="ToolsExpire" d="M754.034 790.11c-14.894 0-25.445 2.896-31.647 8.688-6.212 5.792-9.315 15.308-9.315 28.548v86.884c0 14.069 3.103 23.79 9.315 29.168 6.206 5.379 16.756 8.068 31.647 8.068 15.722 0 26.686-2.689 32.892-8.068 6.212-5.379 9.315-15.101 9.315-29.168v-86.884c0-13.24-3.103-22.755-9.315-28.548-6.206-5.792-17.17-8.688-32.892-8.688zM269.964 790.11c-14.894 0-25.445 2.896-31.651 8.688s-9.309 15.308-9.309 28.548v86.884c0 14.069 3.103 23.79 9.309 29.168s16.756 8.068 31.651 8.068c15.722 0 26.686-2.689 32.892-8.068s9.309-15.101 9.309-29.168v-86.884c0-13.24-3.103-22.755-9.309-28.548s-17.17-8.688-32.892-8.688zM947.664 870.789c4.959 0 9.309-1.655 13.033-4.965s5.585-7.447 5.585-12.412v-183.698c0-4.965-1.862-9.102-5.585-12.412s-8.070-4.965-13.033-4.965h-871.328c-4.965 0-9.309 1.655-13.033 4.965s-5.585 7.447-5.585 12.412v183.698c0 4.965 1.862 9.102 5.585 12.412s8.068 4.965 13.033 4.965h94.332v-43.442c0-11.585 1.655-22.962 4.965-34.133s8.895-21.307 16.756-30.41c7.861-9.102 18.204-16.549 31.030-22.342s28.341-8.688 46.545-8.688 33.719 2.896 46.545 8.688 23.376 13.24 31.651 22.342 14.067 19.239 17.377 30.41c3.31 11.171 4.965 22.549 4.965 34.133v43.442h284.236v-43.442c0-11.585 1.655-22.962 4.965-34.133s8.895-21.307 16.756-30.41 18.21-16.549 31.030-22.342c12.826-5.792 28.347-8.688 46.545-8.688 18.21 0 33.719 2.896 46.545 8.688s23.376 13.24 31.651 22.342c8.269 9.102 14.067 19.239 17.371 30.41 3.31 11.171 4.965 22.549 4.965 34.133v43.442h93.098zM741.622 423.955c0 5.788-3.31 8.684-9.93 8.684h-37.236c-1.649 0-2.896-0.414-3.724-1.235l-106.744-52.131c-3.31-2.488-4.965-5.792-4.965-9.93l8.688-60.813c0-1.655 0.414-2.902 1.241-3.73 0.821-0.821 1.649-2.069 2.482-3.724 2.482-1.649 5.379-1.649 8.688 0l48.407 18.624v-245.765c0-5.788 2.896-8.684 8.682-8.684h74.478c6.62 0 9.93 2.896 9.93 8.684v350.018zM360.572 60.282c47.166 0 85.023 10.757 113.57 32.271 28.548 21.508 42.822 50.476 42.822 86.884 0 26.479-7.447 46.338-22.342 59.578s-30.616 23.169-47.166 29.789c39.719 18.206 59.578 46.34 59.578 84.398 0 25.652-11.171 46.131-33.513 61.44s-52.131 22.962-89.367 22.962c-41.373 0-75.713-6.206-103.020-18.618-4.137-3.31-5.792-6.626-4.965-9.93l8.688-60.813c0-3.316 1.241-5.379 3.724-6.212 2.482-2.482 5.379-2.896 8.688-1.241 23.169 12.412 45.925 18.624 68.266 18.624 20.687 0 32.685-3.103 35.995-9.309 3.31-6.212 4.965-11.378 4.965-15.515 0-6.62-3.724-13.86-11.171-21.721s-26.065-12.619-55.854-14.274c-5.792 0-8.688-2.896-8.688-8.688v-62.060c0-5.792 2.896-8.688 8.688-8.688 34.754-1.655 57.095-5.999 67.025-13.033 9.93-7.040 14.894-17.584 14.894-31.651 0-10.757-4.965-19.446-14.894-26.065-9.93-6.626-22.755-9.93-38.477-9.93-14.894 0-28.755 1.241-41.58 3.724-12.826 2.488-26.272 6.212-40.339 11.173-2.482 0.825-4.965 0.825-7.447 0-2.482-1.651-3.724-3.726-3.724-6.208l-8.688-62.060c-1.655-4.137 0-7.040 4.965-8.688 13.24-5.792 27.72-9.93 43.442-12.412s31.030-3.726 45.925-3.726zM947.664 589.035c4.959 0 9.309-1.655 13.033-4.965s5.585-7.447 5.585-12.412v-625.567c0-4.965-1.862-9.315-5.585-13.039s-8.070-5.585-13.033-5.585h-871.328c-4.965 0-9.309 1.862-13.033 5.585s-5.585 8.072-5.585 13.039v625.567c0 4.965 1.862 9.102 5.585 12.412s8.068 4.965 13.033 4.965h871.328z" />
<glyph unicode="&#xe90b;" glyph-name="RateStarOff" d="M512 143.888l316.416-190.821-83.713 359.884 279.297 242.023-368.178 31.591-143.822 339.301-143.82-339.301-368.18-31.591 279.297-242.023-83.713-359.884z" />
<glyph unicode="&#xe90c;" glyph-name="RateStarOn" d="M512 143.888l316.416-190.821-83.713 359.884 279.297 242.023-368.178 31.591-143.822 339.301-143.82-339.301-368.18-31.591 279.297-242.023-83.713-359.884z" />
<glyph unicode="&#xe90d;" glyph-name="RateStarOver" d="M512 143.888l316.416-190.821-83.713 359.884 279.297 242.023-368.178 31.591-143.822 339.301-143.82-339.301-368.18-31.591 279.297-242.023-83.713-359.884z" />
<glyph unicode="&#xe90e;" glyph-name="RateUp" d="M970.066 586.762l-383.258 0.431c0 0 22.221 90.934 26.212 133.542 2.697 29.125 3.345 58.141-3.344 86.835-9.924 43.148-21.034 70.115-38.725 103.554-9.492 17.691-27.83 28.693-47.786 28.693h-74.214c-29.88 0-54.043-24.271-53.934-54.15 0.216-49.943 0.216-116.606-0.863-118.872-29.125-61.27-62.888-120.058-100.965-176.15-17.367-25.673-35.597-50.591-56.739-73.351-9.277-9.924-14.347-23.084-14.347-36.568v-471.604c0-13.913 5.393-27.397 15.102-37.429 14.454-14.887 40.343-32.575 82.843-32.575 134.081 0.539 351.329 1.726 505.796 0.647 19.309-0.108 37.215 10.031 46.923 26.75l136.24 233.213c9.277 16.18 14.131 34.518 14.238 53.178l0.755 279.705c0.001 29.88-24.162 54.042-53.933 54.15zM102.26 509.744h-48.325c-29.772 0-53.934-24.163-53.934-53.934v-462.758c0-29.774 24.163-53.934 53.934-53.934h48.217c29.772 0 53.934 24.16 53.934 53.934v462.758c0.108 29.772-24.055 53.934-53.827 53.934z" />
<glyph unicode="&#xe90f;" glyph-name="RateUpGrey" d="M970.066 586.762l-383.258 0.431c0 0 22.221 90.934 26.212 133.542 2.697 29.125 3.345 58.141-3.344 86.835-9.924 43.148-21.034 70.115-38.725 103.554-9.492 17.691-27.83 28.693-47.786 28.693h-74.214c-29.88 0-54.043-24.271-53.934-54.15 0.216-49.943 0.216-116.606-0.863-118.872-29.125-61.27-62.888-120.058-100.965-176.15-17.367-25.673-35.597-50.591-56.739-73.351-9.277-9.924-14.347-23.084-14.347-36.568v-471.604c0-13.913 5.393-27.397 15.102-37.429 14.454-14.887 40.343-32.575 82.843-32.575 134.081 0.539 351.329 1.726 505.796 0.647 19.309-0.108 37.215 10.031 46.923 26.75l136.24 233.213c9.277 16.18 14.131 34.518 14.238 53.178l0.755 279.705c0.001 29.88-24.162 54.042-53.933 54.15zM102.26 509.744h-48.325c-29.772 0-53.934-24.163-53.934-53.934v-462.758c0-29.774 24.163-53.934 53.934-53.934h48.217c29.772 0 53.934 24.16 53.934 53.934v462.758c0.108 29.772-24.055 53.934-53.827 53.934z" />
<glyph unicode="&#xe910;" glyph-name="RateDown" d="M970.066 292.172l-383.258-0.431c0 0 22.221-90.934 26.212-133.542 2.697-29.125 3.345-58.141-3.344-86.835-9.924-43.148-21.034-70.115-38.725-103.554-9.492-17.691-27.83-28.693-47.786-28.693h-74.214c-29.88 0-54.043 24.271-53.934 54.15 0.216 49.943 0.216 116.606-0.863 118.872-29.125 61.27-62.888 120.058-100.965 176.15-17.367 25.673-35.597 50.591-56.739 73.351-9.277 9.924-14.347 23.084-14.347 36.568v471.604c0 13.913 5.393 27.397 15.102 37.429 14.454 14.887 40.343 32.575 82.843 32.575 134.081-0.539 351.329-1.726 505.796-0.647 19.309 0.108 37.215-10.031 46.923-26.75l136.24-233.213c9.277-16.18 14.131-34.518 14.238-53.178l0.755-279.705c0.001-29.88-24.162-54.042-53.933-54.15zM102.26 369.19h-48.325c-29.772 0-53.934 24.163-53.934 53.934v462.758c0 29.774 24.163 53.934 53.934 53.934h48.217c29.772 0 53.934-24.16 53.934-53.934v-462.758c0.108-29.772-24.055-53.934-53.827-53.934z" />
<glyph unicode="&#xe911;" glyph-name="RateDownGrey" d="M970.066 292.172l-383.258-0.431c0 0 22.221-90.934 26.212-133.542 2.697-29.125 3.345-58.141-3.344-86.835-9.924-43.148-21.034-70.115-38.725-103.554-9.492-17.691-27.83-28.693-47.786-28.693h-74.214c-29.88 0-54.043 24.271-53.934 54.15 0.216 49.943 0.216 116.606-0.863 118.872-29.125 61.27-62.888 120.058-100.965 176.15-17.367 25.673-35.597 50.591-56.739 73.351-9.277 9.924-14.347 23.084-14.347 36.568v471.604c0 13.913 5.393 27.397 15.102 37.429 14.454 14.887 40.343 32.575 82.843 32.575 134.081-0.539 351.329-1.726 505.796-0.647 19.309 0.108 37.215-10.031 46.923-26.75l136.24-233.213c9.277-16.18 14.131-34.518 14.238-53.178l0.755-279.705c0.001-29.88-24.162-54.042-53.933-54.15zM102.26 369.19h-48.325c-29.772 0-53.934 24.163-53.934 53.934v462.758c0 29.774 24.163 53.934 53.934 53.934h48.217c29.772 0 53.934-24.16 53.934-53.934v-462.758c0.108-29.772-24.055-53.934-53.827-53.934z" />
<glyph unicode="&#xe912;" glyph-name="ForumStatusAdd" d="M1024 554.667h-384v384h-256v-384h-384v-256h384v-384h256v384h384z" />
<glyph unicode="&#xe913;" glyph-name="ToolsBanOn" d="M981.81 626.018c-27.024 63.123-63.242 117.507-108.66 163.13-45.39 45.628-99.672 81.962-162.802 108.984-63.107 27.022-129.24 40.535-198.34 40.535-69.107 0-135.228-13.52-198.356-40.535-63.13-27.022-117.4-63.349-162.804-108.984-45.407-45.623-81.629-100.007-108.651-163.13-27.020-63.128-40.533-129.472-40.533-199.017 0-69.547 13.513-135.999 40.533-199.343 27.029-63.361 63.242-117.833 108.651-163.472 45.404-45.63 99.674-81.966 162.804-108.967 63.128-27.034 129.247-40.549 198.356-40.549s135.233 13.516 198.34 40.549c63.13 27.015 117.411 63.337 162.802 108.967 45.418 45.639 81.634 100.114 108.66 163.472 27.024 63.347 40.526 129.798 40.526 199.343-0.009 69.545-13.502 135.889-40.526 199.017zM209.654 228.328c-39.427 60.668-59.141 126.922-59.132 198.682 0 65.558 16.174 126.249 48.511 182.071 32.331 55.817 76.197 99.893 131.565 132.242 55.373 32.338 115.843 48.502 181.41 48.502 73.108 0 139.536-20.158 199.352-60.47l-501.707-501.027zM844.901 285.786c-19.055-44.962-44.732-83.619-77.069-115.961-32.352-32.34-70.776-58.145-115.3-77.398-44.524-19.264-91.374-28.912-140.537-28.912-70.876 0-136.662 19.704-197.355 59.148l501.041 500.371c38.557-59.362 57.81-124.708 57.81-196.026-0.012-49.179-9.538-96.245-28.588-141.221z" />
<glyph unicode="&#xe914;" glyph-name="ToolsSuspendOn" d="M794.89 618.199l44.767 63.211c8.112 11.462 5.409 27.334-6.074 35.474l-67.477 47.789c-11.466 8.105-27.353 5.396-35.469-6.066l-45.863-64.749c-33.843 15.835-70.19 27.203-108.28 33.234v26.349c0 16.854 13.796 30.656 30.656 30.656h16.908c16.88 0 30.68 13.806 30.68 30.654v93.241c0 16.871-13.8 30.673-30.68 30.673h-224.14c-16.852 0-30.646-13.802-30.646-30.673v-93.241c0-16.848 13.793-30.654 30.646-30.654h16.936c16.865 0 30.663-13.802 30.663-30.656v-26.349c-40.831-6.492-79.664-19.035-115.536-36.718l-45.432 64.142c-8.125 11.464-24.009 14.175-35.474 6.051l-67.479-47.774c-11.477-8.123-14.182-24.012-6.063-35.471l45.812-64.723c-74.177-74.021-120.118-176.33-120.118-289.17 0-225.402 183.382-408.762 408.777-408.762 225.393 0 408.773 183.361 408.773 408.762 0 115.716-48.343 220.346-125.885 294.77zM512.002 12.764c-171.309 0-310.67 139.37-310.67 310.668 0 171.302 139.361 310.672 310.67 310.672 171.298 0 310.676-139.37 310.676-310.672 0-171.296-139.378-310.668-310.676-310.668zM768.12 325.48c-1.109 140.296-115.56 254.119-256.118 254.119-0.691 0-1.371-0.062-2.040-0.062v-254.057h-254.083c-0.015-0.669-0.054-1.347-0.054-2.050 0-140.571 113.823-255.005 254.136-256.118 0.671 0 1.349-0.036 2.040-0.036 141.244 0 256.167 114.893 256.167 256.154-0.002 0.704-0.049 1.381-0.049 2.050z" />
<glyph unicode="&#xe915;" glyph-name="ToolsWarnOn" d="M81.124-36.192h862.131c60.283 0 99.096 63.586 71.844 117.263l-431.066 763.863c-29.737 59.449-114.786 59.449-144.515 0l-431.066-763.863c-26.426-53.677 12.386-117.263 72.67-117.263zM579.914 141.354c0-39.638-28.903-70.193-70.193-70.193s-70.193 30.555-70.193 70.193v1.652c0 39.638 28.903 70.193 70.193 70.193s70.193-30.555 70.193-70.193v-1.652zM471.726 657.477h80.936c22.288 0 35.509-18.993 33.032-42.941l-35.517-310.499c-2.477-22.296-17.341-36.335-37.986-36.335s-35.509 14.038-37.986 36.335l-35.517 310.499c-2.469 23.948 10.752 42.941 33.041 42.941z" />
<glyph unicode="&#xe916;" glyph-name="ManageWarnings" d="M81.124-36.192h862.131c60.283 0 99.096 63.586 71.844 117.263l-431.066 763.863c-29.737 59.449-114.786 59.449-144.515 0l-431.066-763.863c-26.426-53.677 12.386-117.263 72.67-117.263zM579.914 141.354c0-39.638-28.903-70.193-70.193-70.193s-70.193 30.555-70.193 70.193v1.652c0 39.638 28.903 70.193 70.193 70.193s70.193-30.555 70.193-70.193v-1.652zM471.726 657.477h80.936c22.288 0 35.509-18.993 33.032-42.941l-35.517-310.499c-2.477-22.296-17.341-36.335-37.986-36.335s-35.509 14.038-37.986 36.335l-35.517 310.499c-2.469 23.948 10.752 42.941 33.041 42.941z" />
</font>
</defs>
</svg>
